当前位置: 首页 >> 日韩电影 >> 故事[中文字幕].The.Gossip.2021.1080p.WEB-DL.H264.AAC-HDBWEB 2.70GB >> 正文

故事[中文字幕].The.Gossip.2021.1080p.WEB-DL.H264.AAC-HDBWEB 2.70GB

2022年04月12日 14:52:53     电影发布:来源于网络     电影分类:日韩电影     评论(0)    

故事[中文字幕].The.Gossip.2021.1080p.WEB DL.H264.AAC HDBWEB 2.70GB 恐怖 惊悚 喜剧 日韩电影  第1张

◎译 名 故事 / 低潮 / 非常八卦(台) / The Gossip

◎片 名 ?

◎年 代 2021

◎产 地 韩国

◎类 别 喜剧 / 悬疑 / 惊悚 / 恐怖

◎语 言 韩语

◎上映日期 2021-06-03(韩国)

◎IMDb链接 https://www.imdb.com/title/tt14787206/

◎豆瓣评分 4.8/10 (130人评价)

◎豆瓣链接 https://movie.douban.com/subject/35259355/

◎片 长 84分钟

◎导 演 黃承宰 Seung-jae Hwang (id:1368165)

◎演 员 金姜贤 Gang-Hyun Kim (id:1342496)

姜澯熙 Chan-hee Kang (id:1314545)

金素拉 So-ra Kim (id:1394448)

赵在允 Jae-yun Jo (id:1345499)

张光 Gwang Jang (id:1320452)

张英 Young Jang (id:1427472)

郑镇荣 Jin-yeong Jeong (id:1029108)

◎简 介

《故事》描绘了了聚集在一个空间里的人们聊天时发生的骚乱。

郑进永将以解决师的角色登场。澯熙将饰演一名来打工时被卷入事件的就业准备生,他将作为主角带领电影。(by 哎一股清流)

  1. ##### MediaInfo ######

  2. General

  3. Unique ID : 138741628980333276785340837111049663218 (0x6860AA7077DCF9F14BADDB3DCD86B2F2)

  4. Complete name : 非常八卦.The.Gossip.2021.1080p.WEB-DL.H264.AAC-OurTV.mp4

  5. Format : Matroska

  6. Format version : Version 4

  7. File size : 2.70 GiB

  8. Duration : 1 h 24 min

  9. Overall bit rate : 4 588 kb/s

  10. Encoded date : UTC 2022-04-08 04:20:06

  11. Writing application : mkvmerge v66.0.0 ('Josie') 64-bit

  12. Writing library : libebml v1.4.2 + libmatroska v1.6.4

  13. FileExtension_Invalid : mkv mk3d mka mks

  14. Video

  15. ID : 1

  16. Format : AVC

  17. Format/Info : Advanced Video Codec

  18. Format profile : [email protected]

  19. Format settings : CABAC / 3 Ref Frames

  20. Format settings, CABAC : Yes

  21. Format settings, Reference frames : 3 frames

  22. Format settings, GOP : M=1, N=60

  23. Codec ID : V_MPEG4/ISO/AVC

  24. Duration : 1 h 24 min

  25. Bit rate : 4 000 kb/s

  26. Width : 1 920 pixels

  27. Height : 1 080 pixels

  28. Display aspect ratio : 16:9

  29. Frame rate mode : Constant

  30. Frame rate : 29.970 (29970/1000/53354) FPS

  31. Color space : YUV

  32. Chroma subsampling : 4:2:0

  33. Bit depth : 8 bits

  34. Scan type : Progressive

  35. Bits/(Pixel*Frame) : 0.064

  36. Stream size : 2.33 GiB (86%)

  37. Writing library : x264 core 148 r2762 90a61ec

  38. Encoding settings : cabac=1 / ref=3 / deblock=1:0:0 / analyse=0x1:0x111 / me=hex / subme=7 / psy=1 / psy_rd=1.00:0.00 / mixed_ref=1 / me_range=16 / chroma_me=1 / trellis=1 / 8x8dct=0 / cqm=0 / deadzone=21,11 / fast_pskip=1 / chroma_qp_offset=-2 / threads=12 / lookahead_threads=2 / sliced_threads=0 / nr=0 / decimate=1 / interlaced=0 / NTMzNTQ= / bluray_compat=0 / constrained_intra=0 / bframes=0 / weightp=2 / keyint=60 / keyint_min=31 / scenecut=0 / intra_refresh=0 / rc_lookahead=40 / rc=abr / mbtree=1 / bitrate=4000 / ratetol=1.0 / qcomp=0.60 / qpmin=0 / qpmax=69 / qpstep=4 / NTMzNTQ=LmsMAP37EqsCpk / ip_ratio=1.40 / aq=1:1.00

  39. Default : Yes

  40. Forced : No

  41. Audio #1

  42. ID : 2

  43. Format : AAC LC

  44. Format/Info : Advanced Audio Codec Low Complexity

  45. Codec ID : A_AAC-2

  46. Duration : 1 h 24 min

  47. Bit rate : 288 kb/s

  48. Channel(s) : 2 channels

  49. Channel layout : L R

  50. Sampling rate : 48.0 kHz

  51. Frame rate : 46.875 FPS (1024 SPF)

  52. Compression mode : Lossy

  53. Stream size : 171 MiB (6%)

  54. Default : No

  55. Forced : No

  56. Audio #2

  57. ID : 3

  58. Format : AAC LC

  59. Format/Info : Advanced Audio Codec Low Complexity

  60. Codec ID : A_AAC-2

  61. Duration : 1 h 24 min

  62. Bit rate : 340 kb/s

  63. Channel(s) : 6 channels

  64. Channel layout : C L R Ls Rs LFE

  65. Sampling rate : 48.0 kHz

  66. Frame rate : 46.875 FPS (1024 SPF)

  67. Compression mode : Lossy

  68. Stream size : 205 MiB (7%)

  69. Default : Yes

  70. Forced : No


复制代码



文件下载


除非特别注明,本文『故事[中文字幕].The.Gossip.2021.1080p.WEB-DL.H264.AAC-HDBWEB 2.70GB』来源于互联网机器人自动抓取,非本站原创。 浮游电影网不对本文拥有版权,如有侵犯,请联系邮箱:fuyouu#yandex.com[#换成@]投诉。我们会在15个工作日内删除。 但烦请转载时请标明出处:“本文转载于『浮游电影网』,原文地址:https://www.fuyouu.com/21273.html

评论吧骚年!

发表你的见解   

昵称*

E-mail*(建议输入,以便收到博主回复的提示邮件)

验证码*

您可以使用eMule或eMule Mod(Windows)、aMule(Win、Linux、Mac)等软件下载eD2k链接。。
eMule收藏集(.emulecollection)文件是您选中的所有链接的列表文件。eMule可以直接下载它们。
按住SHIFT键选择可以选中多个选择框。
可用文件名和大小选择器来选择文件。
文件名选择器帮您根据文件名称或后缀来选择文件。不分大小写。
符号使用:
和:空格( )、+
不包含:-
或:|
转义:一对英文引号("");
匹配开头:^
匹配结尾:$
例如:
选中所有名称中包含有“eMule”或“0.49c”字眼,但不包含有“exe”字眼的:emule|0.49c -exe
选中所有名称的开头是“eMule”,结尾是“0.49c”的:^emule 0.49c$
选中所有名称中带有“eMule 0.49c”的(必须是“eMule 0.49c”,中间没有别的字符,不能是“eMule fake 0.49c”),需要转义:"emule 0.49c"
大小选择器帮您根据文件大小选择文件。