当前位置: 首页 >> 欧美电影 >> 19车[简繁英字幕].Vehicle.19.2013.1080p.BluRay.DTS-HD.MA.5.1.x265.10bit-CTRLHD 5.39GB >> 正文

19车[简繁英字幕].Vehicle.19.2013.1080p.BluRay.DTS-HD.MA.5.1.x265.10bit-CTRLHD 5.39GB

2022年04月12日 14:49:16     电影发布:来源于网络     电影分类:欧美电影     评论(0)    

19车[简繁英字幕].Vehicle.19.2013.1080p.BluRay.DTS HD.MA.5.1.x265.10bit CTRLHD 5.39GB 惊悚 欧美电影  第1张

◎译 名 19车 / 玩命车手

◎片 名 Vehicle 19

◎年 代 2013

◎产 地 美国

◎类 别 惊悚

◎语 言 英语

◎上映日期 2013-02-07(美国)

◎IMDb链接 https://www.imdb.com/title/tt1911662/

◎豆瓣评分 4.8/10 (1205人评价)

◎豆瓣链接 https://movie.douban.com/subject/6963295/

◎片 长 85分钟

◎导 演 Mukunda Michael Dewil Mukunda Michael Dewil (id:1329059)

◎编 剧 Mukunda Michael Dewil Mukunda Michael Dewil (id:1329059)

◎演 员 保罗·沃克 Paul Walker (id:1031239)

Naima McLean Naima McLean (id:1329060)

Gys De Villiers Gys De Villiers (id:1329062)

Leyla Haidarian Leyla Haidarian (id:1329063)

Tshepo Maseko Tshepo Maseko (id:1329064)

保罗·沃克 Paul Walker (id:1031239)

◎简 介

美國假釋犯(保羅沃克飾)來到南非約翰尼斯堡,希望與前妻重修舊好。預先租好的車子原本應該在機場等他,但租車公司卻給了他不同的車。不知情的他決定不跟租車公司計較,上了車之後,一連串不可思議的事件接二連三發生…。車上的一支神秘手機、一通神秘簡訊、一把手槍、後車廂一偙唤櫧壍哪吧樱l全市警察的窮追不捨,讓他陷入前所未有的危機!握緊方向盤,油門摧到底,他決定極速求生,奮力一搏…!

《玩命關頭》系列動作巨星保羅沃克,再飆極速快感!美國假釋犯來到南非約翰尼斯堡,卻遭遇到不可思議的事情接連發生,他決定握緊方向盤,油門摧到底,他決定極速求生,奮力一搏…!

沃克在异国游中除了租到一辆车之外,还获得了额外奉送的大礼——一把枪和一名女人质,这让他陷入险局。

  1. ##### MediaInfo ######

  2. General

  3. Unique ID : 23506907533810227195342112776370175631 (0x11AF4405B274865BEC6F3EE207B6BE8F)

  4. Complete name : Vehicle.19.2013.1080p.BluRay.DTS-HD.MA.5.1.x265.10bit-CHD.mkv

  5. Format : Matroska

  6. Format version : Version 4

  7. File size : 5.39 GiB

  8. Duration : 1 h 25 min

  9. Overall bit rate mode : Variable

  10. Overall bit rate : 9 054 kb/s

  11. Encoded date : UTC 2022-04-10 09:45:42

  12. Writing application : mkvmerge v66.0.0 ('Josie') 64-bit

  13. Writing library : libebml v1.4.2 + libmatroska v1.6.4

  14. Video

  15. ID : 1

  16. Format : HEVC

  17. Format/Info : High Efficiency Video Coding

  18. Format profile : Main [email protected]@Main

  19. Codec ID : V_MPEGH/ISO/HEVC

  20. Duration : 1 h 25 min

  21. Bit rate : 7 102 kb/s

  22. Width : 1 920 pixels

  23. Height : 804 pixels

  24. Display aspect ratio : 2.40:1

  25. Frame rate mode : Constant

  26. Frame rate : 23.976 (24000/1001/53354) FPS

  27. Color space : YUV

  28. Chroma subsampling : 4:2:0

  29. Bit depth : 10 bits

  30. Bits/(Pixel*Frame) : 0.192

  31. Stream size : 4.22 GiB (78%)

  32. Writing library : x265 3.5+20-17839cc0d:[Windows][MSVC 1930][64 bit] 10bit

  33. Encoding settings : cpuid=533541111039 / frame-threads=4 / numa-pools=16 / wpp / no-pmode / pme / no-psnr / no-ssim / log-level=2 / input-csp=1 / input-res=1920x804 / interlace=0 / total-frames=0 / level-idc=0 / high-tier=1 / uhd-bd=0 / ref=6 / no-allow-non-conformance / repeat-headers / annexb / no-aud / no-eob / no-eos / no-hrd / info / hash=0 / no-temporal-layers / no-open-gop / min-keyint=23 / keyint=250 / gop-lookahead=0 / bframes=8 / b-adapt=2 / b-pyramid / bframe-bias=0 / rc-lookahead=57 / lookahead-slices=5 / NTMzNTQ=uuDQuD2mJt9fsCf / scenecut=40 / no-hist-scenecut / radl=0 / no-splice / no-intra-refresh / ctu=64 / min-cu-size=8 / no-rect / no-amp / max-tu-size=32 / tu-inter-depth=1 / tu-intra-depth=1 / limit-tu=0 / rdoq-level=0 / dynamic-rd=0.00 / no-ssim-rd / signhide / no-tskip / nr-intra=0 / nr-inter=0 / no-constrained-intra / no-strong-intra-smoothing / max-merge=3 / limit-refs=1 / no-limit-modes / me=2 / subme=7 / merange=57 / temporal-mvp / no-frame-dup / no-hme / weightp / weightb / no-analyze-src-pics / deblock=0:0 / sao / no-sao-non-deblock / rd=4 / selective-sao=4 / early-skip / rskip / no-fast-intra / no-tskip-fast / no-cu-lossless / b-intra / no-splitrd-skip / rdpenalty=0 / psy-rd=2.00 / psy-rdoq=0.00 / no-rd-refine / no-lossless / cbqpoffs=0 / crqpoffs=0 / rc=crf / crf=16.0 / qcomp=0.60 / qpstep=4 / stats-write=0 / stats-read=0 / ipratio=1.40 / pbratio=1.30 / aq-mode=3 / aq-strength=1.00 / cutree / zone-count=0 / no-strict-cbr / qg-size=32 / no-rc-grain / qpmax=69 / qpmin=0 / no-const-vbv / sar=0 / overscan=0 / videoformat=5 / range=0 / colorprim=2 / transfer=2 / colormatrix=2 / chromaloc=0 / display-window=0 / cll=0,0 / min-luma=0 / max-luma=1023 / log2-max-poc-lsb=8 / vui-timing-info / vui-hrd-info / slices=1 / no-opt-qp-pps / no-opt-ref-list-length-pps / no-multi-pass-opt-rps / scenecut-bias=0.05 / hist-threshold=0.03 / no-opt-cu-delta-qp / aq-motion / no-hdr10 / no-hdr10-opt / no-dhdr10-opt / no-idr-recovery-sei / analysis-reuse-level=0 / analysis-save-reuse-level=0 / analysis-load-reuse-level=0 / scale-factor=0 / refine-intra=0 / refine-inter=0 / refine-mv=1 / refine-ctu-distortion=0 / no-limit-sao / ctu-info=0 / no-lowpass-dct / refine-analysis-type=0 / copy-pic=1 / max-ausize-factor=1.0 / no-dynamic-refine / no-single-sei / no-hevc-aq / no-svt / no-field / qp-adaptation-range=1.00 / scenecut-aware-qp=0conformance-window-offsets / right=0 / bottom=0 / NTMzNTQ= / decoder-max-rate=0 / no-vbv-live-multi-pass

  34. Default : Yes

  35. Forced : No

  36. Audio

  37. ID : 2

  38. Format : DTS XLL

  39. Format/Info : Digital Theater Systems

  40. Commercial name : DTS-HD Master Audio

  41. Codec ID : A_DTS

  42. Duration : 1 h 25 min

  43. Bit rate mode : Variable

  44. Bit rate : 1 906 kb/s

  45. Channel(s) : 6 channels

  46. Channel layout : C L R Ls Rs LFE

  47. Sampling rate : 48.0 kHz

  48. Frame rate : 93.750 FPS (512 SPF)

  49. Bit depth : 16 bits

  50. Compression mode : Lossless

  51. Stream size : 1.13 GiB (21%)

  52. Default : Yes

  53. Forced : No

  54. Text #1

  55. ID : 3

  56. Format : PGS

  57. Muxing mode : zlib

  58. Codec ID : S_HDMV/PGS

  59. Codec ID/Info : Picture based subtitle format used on BDs/HD-DVDs

  60. Duration : 1 h 16 min

  61. Bit rate : 17.0 kb/s

  62. Count of elements : 1127

  63. Stream size : 9.29 MiB (0%)

  64. Title : chs

  65. Language : Chinese

  66. Default : No

  67. Forced : No

  68. Text #2

  69. ID : 4

  70. Format : PGS

  71. Muxing mode : zlib

  72. Codec ID : S_HDMV/PGS

  73. Codec ID/Info : Picture based subtitle format used on BDs/HD-DVDs

  74. Duration : 1 h 16 min

  75. Bit rate : 17.1 kb/s

  76. Count of elements : 1127

  77. Stream size : 9.36 MiB (0%)

  78. Title : cht

  79. Language : Chinese

  80. Default : No

  81. Forced : No

  82. Text #3

  83. ID : 5

  84. Format : PGS

  85. Muxing mode : zlib

  86. Codec ID : S_HDMV/PGS

  87. Codec ID/Info : Picture based subtitle format used on BDs/HD-DVDs

  88. Duration : 1 h 16 min

  89. Bit rate : 30.5 kb/s

  90. Count of elements : 1135

  91. Stream size : 16.7 MiB (0%)

  92. Title : chs & eng

  93. Language : Chinese

  94. Default : Yes

  95. Forced : No

  96. Text #4

  97. ID : 6

  98. Format : PGS

  99. Muxing mode : zlib

  100. Codec ID : S_HDMV/PGS

  101. Codec ID/Info : Picture based subtitle format used on BDs/HD-DVDs

  102. Duration : 1 h 16 min

  103. Bit rate : 30.6 kb/s

  104. Count of elements : 1135

  105. Stream size : 16.7 MiB (0%)

  106. Title : cht & eng

  107. Language : Chinese

  108. Default : No

  109. Forced : No

  110. Menu

  111. 00:00:00.000 : :第 01 章

  112. 00:05:49.224 : :第 02 章

  113. 00:12:37.882 : :第 03 章

  114. 00:24:17.956 : :第 04 章

  115. 00:33:50.487 : :第 05 章

  116. 00:44:55.484 : :第 06 章

  117. 00:52:17.551 : :第 07 章

  118. 00:59:34.529 : :第 08 章

  119. 01:04:45.507 : :第 09 章

  120. 01:07:53.236 : :第 10 章

  121. 01:13:05.298 : :第 11 章

  122. 01:20:07.136 : :第 12 章


复制代码



文件下载


除非特别注明,本文『19车[简繁英字幕].Vehicle.19.2013.1080p.BluRay.DTS-HD.MA.5.1.x265.10bit-CTRLHD 5.39GB』来源于互联网机器人自动抓取,非本站原创。 浮游电影网不对本文拥有版权,如有侵犯,请联系邮箱:fuyouu#yandex.com[#换成@]投诉。我们会在15个工作日内删除。 但烦请转载时请标明出处:“本文转载于『浮游电影网』,原文地址:https://www.fuyouu.com/21269.html

评论吧骚年!

发表你的见解   

昵称*

E-mail*(建议输入,以便收到博主回复的提示邮件)

验证码*

您可以使用eMule或eMule Mod(Windows)、aMule(Win、Linux、Mac)等软件下载eD2k链接。。
eMule收藏集(.emulecollection)文件是您选中的所有链接的列表文件。eMule可以直接下载它们。
按住SHIFT键选择可以选中多个选择框。
可用文件名和大小选择器来选择文件。
文件名选择器帮您根据文件名称或后缀来选择文件。不分大小写。
符号使用:
和:空格( )、+
不包含:-
或:|
转义:一对英文引号("");
匹配开头:^
匹配结尾:$
例如:
选中所有名称中包含有“eMule”或“0.49c”字眼,但不包含有“exe”字眼的:emule|0.49c -exe
选中所有名称的开头是“eMule”,结尾是“0.49c”的:^emule 0.49c$
选中所有名称中带有“eMule 0.49c”的(必须是“eMule 0.49c”,中间没有别的字符,不能是“eMule fake 0.49c”),需要转义:"emule 0.49c"
大小选择器帮您根据文件大小选择文件。