当前位置: 首页 >> 国产电影 >> 大上海[国粤英多音轨/简繁英字幕].The.Last.Tycoon.2012.BluRay.1080p.2Audio.DTS-HD.MA.7.1.x265.10bit-ALT 17.41GB >> 正文

大上海[国粤英多音轨/简繁英字幕].The.Last.Tycoon.2012.BluRay.1080p.2Audio.DTS-HD.MA.7.1.x265.10bit-ALT 17.41GB

2022年04月12日 14:46:19     电影发布:来源于网络     电影分类:国产电影     评论(0)    

大上海[国粤英多音轨/简繁英字幕].The.Last.Tycoon.2012.BluRay.1080p.2Audio.DTS HD.MA.7.1.x265.10bit ALT 17.41GB 动作 剧情 国产电影  第1张

◎译 名 大上海 / The Last Tycoon

◎年 代 2012

◎产 地 中国大陆 / 中国香港

◎类 别 剧情 / 动作

◎语 言 汉语普通话 / 粤语

◎上映日期 2012-12-21(中国大陆)

◎IMDb链接 https://www.imdb.com/title/tt2458314/

◎豆瓣评分 6.7/10 (83849人评价)

◎豆瓣链接 https://movie.douban.com/subject/10540066/

◎片 长 114分钟

◎导 演 王晶 Jing Wong (id:1274331)

◎编 剧 文隽 Manfred Wong (id:1274823)

吕冠南 Koon-Nam Lui (id:1313441)

王晶 Jing Wong (id:1274331)

◎演 员 周润发 Yun-Fat Chow (id:1044899)

黄晓明 Xiaoming Huang (id:1041404)

洪金宝 Sammo Hung Kam-Bo (id:1055887)

吴镇宇 Francis Ng (id:1037098)

袁泉 Quan Yuan (id:1010504)

袁立 Li Yuan (id:1012196)

莫小奇 Monica Mok (id:1275369)

童飞 Kimmy Tong (id:1320526)

高虎 Hu Gao (id:1274737)

辛柏青 Baiqing Xin (id:1021293)

戚跡 Ji Qi (id:1323735)

冯文娟 Wenjuan Feng (id:1325753)

张颂文 Songwen Zhang (id:1314329)

胡龄尹 Grace Hu (id:1442917)

姜昊旻 Haomin Jiang (id:1415998)

陈浩 Hao Chen (id:1329520)

李坤珏 Kunjue Li (id:1336077)

史耀中 Yaozhong Shi (id:1369855)

王巍 Wei Wang (id:1326686)

郑逸桐 Yitong Zheng (id:1322301)

高天 Tian Gao (id:1318120)

杜奕衡 John Do (id:1275965)

孙誉函 Yuhan Sun (id:1464371)

林明杰 Eric Lin (id:1374637)

于冬 Dong Yu (id:1317865)

谢志华 Chi-Wah Tse (id:1417403)

刘伟强 Andrew Lau (id:1106979)

陈致逸 Zhiyi Chen (id:1328028)

关智耀 Jason Kwan Chi-Yiu (id:1318237)

刘伟强 Andrew Lau (id:1106979)

杨振宇 Zhenyu Yang (id:1424278)

林子侨 Che Kiu Lam (id:1326654)

王珮瑜 Peiyu Wang (id:1369889)

陈子雯 Ivy Chan (id:1331929)

◎简 介

本是水果店小伙计的成大器(黄晓明 饰),在上海投向权倾一时的巡捕房探长洪寿亭(洪金宝 饰)旗下,任职赌场打手,被洪寿亭的妻子凌沪生(袁莉 饰)慧眼赏识,造就大器迅速出人头地。成大器颇具江湖手腕,不仅敢打敢拼,还擅于各方谈判,愿意利益共享,往往能化干戈为玉帛,令他终于成为 上海一代枭雄之首。

成大器少年得志,交上了上海第一美人“溢春园阿宝”(莫小棋 饰),阿宝对王公巨贾都不假辞色,但对大器却一往情深,可惜她发现了无论大器如何疼她宠她,她在大器的心目中永远都只能是第二位,第一位始终是青梅竹马、音讯全无的叶知秋(袁泉 饰)。

多年后,人到中年的成大器(周润发 饰),已是一方之雄,声誉与地位已超越了师父洪寿亭。在上海几乎已无人匹敌,但外敌蠢动的野心与霸道,成为他的最大难题。此时,当年救他一命的茅载(吴镇宇 饰)已成为大特务头子,野心勃勃,以权谋私,令成大器不...

◎获奖情况 (共7项)

第32届香港电影金像奖 (2013)

最佳新演员(提名)

└──冯文娟 (id:1325753)

最佳摄影(提名)

最佳美术指导

最佳原创电影音乐(提名)

最佳原创电影歌曲

第7届亚洲电影大奖 (2013)

最佳美术指导(提名)

最佳造型设计(提名)

  1. ##### MediaInfo ######

  2. General

  3. Unique ID : 113459063049618368099072970818338690329 (0x555B6BB2ECF3E8F0A6CCF16F2DB81519)

  4. Complete name : The.Last.Tycoon.2012.BluRay.1080p.2Audio.DTS-HD.MA.7.1.x265.10bit-BeiTai.mkv

  5. Format : Matroska

  6. Format version : Version 4

  7. File size : 17.4 GiB

  8. Duration : 1 h 58 min

  9. Overall bit rate mode : Variable

  10. Overall bit rate : 21.0 Mb/s

  11. Encoded date : UTC 2022-04-10 11:54:33

  12. Writing application : mkvmerge v49.0.0 ('Sick Of Losing Soulmates') 64-bit

  13. Writing library : libebml v1.4.0 + libmatroska v1.6.1

  14. Video

  15. ID : 1

  16. Format : HEVC

  17. Format/Info : High Efficiency Video Coding

  18. Format profile : Main [email protected]@High

  19. Codec ID : V_MPEGH/ISO/HEVC

  20. Duration : 1 h 58 min

  21. Bit rate : 9 954 kb/s

  22. Width : 1 920 pixels

  23. Height : 804 pixels

  24. Display aspect ratio : 2.40:1

  25. Frame rate mode : Constant

  26. Frame rate : 24.000 FPS

  27. Color space : YUV

  28. Chroma subsampling : 4:2:0

  29. Bit depth : 10 bits

  30. Bits/(Pixel*Frame) : 0.269

  31. Stream size : 8.26 GiB (47%)

  32. Title : HEVC, [email protected]@High, 24 fps @ 9954 kbps

  33. Writing library : x265 3.5+36-1f2c8da77:[Windows][GCC 11.2.0][64 bit] 10bit

  34. Encoding settings : cpuid=533541111039 / frame-threads=4 / numa-pools=16 / wpp / pmode / pme / no-psnr / no-ssim / log-level=2 / input-csp=1 / input-res=1920x804 / interlace=0 / total-frames=171048 / level-idc=51 / high-tier=1 / uhd-bd=0 / ref=5 / no-allow-non-conformance / no-repeat-headers / annexb / no-aud / no-eob / no-eos / no-hrd / info / hash=0 / no-temporal-layers / open-gop / min-keyint=24 / keyint=240 / gop-lookahead=0 / bframes=6 / b-adapt=2 / b-pyramid / bframe-bias=0 / rc-lookahead=40 / lookahead-slices=0 / NTMzNTQ=uuDQuD2mJt9fsCf / scenecut=40 / no-hist-scenecut / radl=0 / no-splice / no-intra-refresh / ctu=32 / min-cu-size=8 / no-rect / no-amp / max-tu-size=32 / tu-inter-depth=3 / tu-intra-depth=3 / limit-tu=4 / rdoq-level=2 / dynamic-rd=0.00 / no-ssim-rd / signhide / no-tskip / nr-intra=0 / nr-inter=0 / no-constrained-intra / no-strong-intra-smoothing / max-merge=4 / limit-refs=1 / limit-modes / me=3 / subme=4 / merange=25 / temporal-mvp / no-frame-dup / no-hme / weightp / weightb / no-analyze-src-pics / deblock=-3:-3 / no-sao / no-sao-non-deblock / rd=6 / selective-sao=0 / no-early-skip / rskip / no-fast-intra / no-tskip-fast / no-cu-lossless / b-intra / no-splitrd-skip / rdpenalty=0 / psy-rd=2.00 / psy-rdoq=1.00 / no-rd-refine / no-lossless / cbqpoffs=0 / crqpoffs=0 / rc=crf / crf=18.5 / qcomp=0.65 / qpstep=4 / stats-write=0 / stats-read=0 / vbv-maxrate=80000 / vbv-bufsize=80000 / vbv-init=0.9 / min-vbv-fullness=50.0 / max-vbv-fullness=80.0 / crf-max=0.0 / crf-min=0.0 / ipratio=1.40 / pbratio=1.30 / aq-mode=2 / aq-strength=0.85 / cutree / zone-count=0 / no-strict-cbr / qg-size=32 / no-rc-grain / qpmax=69 / qpmin=0 / no-const-vbv / sar=1 / overscan=0 / videoformat=5 / range=0 / colorprim=1 / transfer=1 / colormatrix=1 / chromaloc=0 / display-window=0 / cll=0,0 / min-luma=0 / max-luma=1023 / log2-max-poc-lsb=8 / vui-timing-info / vui-hrd-info / slices=1 / no-opt-qp-pps / no-opt-ref-list-length-pps / no-multi-pass-opt-rps / scenecut-bias=0.05 / hist-threshold=0.03 / no-opt-cu-delta-qp / no-aq-motion / no-hdr10 / no-hdr10-opt / no-dhdr10-opt / no-idr-recovery-sei / analysis-reuse-level=0 / analysis-save-reuse-level=0 / analysis-load-reuse-level=0 / scale-factor=0 / refine-intra=0 / refine-inter=0 / refine-mv=1 / refine-ctu-distortion=0 / no-limit-sao / ctu-info=0 / no-lowpass-dct / refine-analysis-type=0 / copy-pic=1 / max-ausize-factor=1.0 / no-dynamic-refine / no-single-sei / no-hevc-aq / no-svt / no-field / qp-adaptation-range=1.00 / scenecut-aware-qp=0conformance-window-offsets / right=0 / bottom=0 / NTMzNTQ= / decoder-max-rate=0 / no-vbv-live-multi-pass

  35. Language : English

  36. Default : Yes

  37. Forced : No

  38. Color range : Limited

  39. Color primaries : BT.709

  40. Transfer characteristics : BT.709

  41. Matrix coefficients : BT.709

  42. Audio #1

  43. ID : 2

  44. Format : DTS XLL

  45. Format/Info : Digital Theater Systems

  46. Commercial name : DTS-HD Master Audio

  47. Codec ID : A_DTS

  48. Duration : 1 h 58 min

  49. Bit rate mode : Variable

  50. Bit rate : 5 695 kb/s

  51. Channel(s) : 8 channels

  52. Channel layout : C L R LFE Lb Rb Lss Rss

  53. Sampling rate : 48.0 kHz

  54. Frame rate : 93.750 FPS (512 SPF)

  55. Bit depth : 24 bits

  56. Compression mode : Lossless

  57. Stream size : 4.72 GiB (27%)

  58. Title : Cantonese DTS-HD Master Audio 7.1 @ 5695 kbps

  59. Language : Chinese

  60. Default : Yes

  61. Forced : No

  62. Audio #2

  63. ID : 3

  64. Format : DTS XLL

  65. Format/Info : Digital Theater Systems

  66. Commercial name : DTS-HD Master Audio

  67. Codec ID : A_DTS

  68. Duration : 1 h 58 min

  69. Bit rate mode : Variable

  70. Bit rate : 5 262 kb/s

  71. Channel(s) : 8 channels

  72. Channel layout : C L R LFE Lb Rb Lss Rss

  73. Sampling rate : 48.0 kHz

  74. Frame rate : 93.750 FPS (512 SPF)

  75. Bit depth : 24 bits

  76. Compression mode : Lossless

  77. Stream size : 4.37 GiB (25%)

  78. Title : Mandarin DTS-HD Master Audio 7.1 @ 5262 kbps

  79. Language : Chinese

  80. Default : No

  81. Forced : No

  82. Text #1

  83. ID : 4

  84. Format : PGS

  85. Codec ID : S_HDMV/PGS

  86. Codec ID/Info : Picture based subtitle format used on BDs/HD-DVDs

  87. Duration : 1 h 52 min

  88. Bit rate : 23.2 kb/s

  89. Count of elements : 2363

  90. Stream size : 18.7 MiB (0%)

  91. Title : Cht/SUP 原盘繁体

  92. Language : Chinese

  93. Default : No

  94. Forced : No

  95. Text #2

  96. ID : 5

  97. Format : PGS

  98. Codec ID : S_HDMV/PGS

  99. Codec ID/Info : Picture based subtitle format used on BDs/HD-DVDs

  100. Duration : 1 h 52 min

  101. Bit rate : 23.1 kb/s

  102. Count of elements : 2363

  103. Stream size : 18.6 MiB (0%)

  104. Title : Chs/SUP 原盘简体

  105. Language : Chinese

  106. Default : Yes

  107. Forced : No

  108. Text #3

  109. ID : 6

  110. Format : PGS

  111. Codec ID : S_HDMV/PGS

  112. Codec ID/Info : Picture based subtitle format used on BDs/HD-DVDs

  113. Duration : 1 h 54 min

  114. Bit rate : 24.9 kb/s

  115. Count of elements : 2394

  116. Stream size : 20.5 MiB (0%)

  117. Title : Eng/SUP

  118. Language : English

  119. Default : No

  120. Forced : No

  121. Menu

  122. 00:00:00.000 : en:第 01 章

  123. 00:12:10.167 : en:第 02 章

  124. 00:21:36.500 : en:第 03 章

  125. 00:31:10.458 : en:第 04 章

  126. 00:42:06.292 : en:第 05 章

  127. 00:50:51.750 : en:第 06 章

  128. 01:01:43.208 : en:第 07 章

  129. 01:08:22.792 : en:第 08 章

  130. 01:20:06.708 : en:第 09 章

  131. 01:30:51.167 : en:第 10 章

  132. 01:38:51.833 : en:第 11 章

  133. 01:48:51.667 : en:第 12 章


复制代码



文件下载


除非特别注明,本文『大上海[国粤英多音轨/简繁英字幕].The.Last.Tycoon.2012.BluRay.1080p.2Audio.DTS-HD.MA.7.1.x265.10bit-ALT 17.41GB』来源于互联网机器人自动抓取,非本站原创。 浮游电影网不对本文拥有版权,如有侵犯,请联系邮箱:fuyouu#yandex.com[#换成@]投诉。我们会在15个工作日内删除。 但烦请转载时请标明出处:“本文转载于『浮游电影网』,原文地址:https://www.fuyouu.com/21266.html

评论吧骚年!

发表你的见解   

昵称*

E-mail*(建议输入,以便收到博主回复的提示邮件)

验证码*

您可以使用eMule或eMule Mod(Windows)、aMule(Win、Linux、Mac)等软件下载eD2k链接。。
eMule收藏集(.emulecollection)文件是您选中的所有链接的列表文件。eMule可以直接下载它们。
按住SHIFT键选择可以选中多个选择框。
可用文件名和大小选择器来选择文件。
文件名选择器帮您根据文件名称或后缀来选择文件。不分大小写。
符号使用:
和:空格( )、+
不包含:-
或:|
转义:一对英文引号("");
匹配开头:^
匹配结尾:$
例如:
选中所有名称中包含有“eMule”或“0.49c”字眼,但不包含有“exe”字眼的:emule|0.49c -exe
选中所有名称的开头是“eMule”,结尾是“0.49c”的:^emule 0.49c$
选中所有名称中带有“eMule 0.49c”的(必须是“eMule 0.49c”,中间没有别的字符,不能是“eMule fake 0.49c”),需要转义:"emule 0.49c"
大小选择器帮您根据文件大小选择文件。