当前位置: 首页 >> 国产电影 >> 哥俩儿好[国语配音/中文字幕].Ge.Liang.Er.Hao.2022.1080p.WEB-DL.H265.AAC-NewWEB 1.83GB >> 正文

哥俩儿好[国语配音/中文字幕].Ge.Liang.Er.Hao.2022.1080p.WEB-DL.H265.AAC-NewWEB 1.83GB

2022年04月12日 14:40:57     电影发布:来源于网络     电影分类:国产电影     评论(0)    

哥俩儿好[国语配音/中文字幕].Ge.Liang.Er.Hao.2022.1080p.WEB DL.H265.AAC NewWEB 1.83GB 喜剧 国产电影  第1张

◎译 名 哥俩儿好

◎年 代 2022

◎产 地 中国大陆

◎类 别 喜剧

◎语 言 汉语普通话

◎上映日期 2022-04-10(中国大陆网络)

◎IMDb链接 https://www.imdb.com/title//

◎豆瓣链接 https://movie.douban.com/subject/35856567/

◎导 演 李春啸 Chunxiao Li (id:1362233)

◎演 员 刘小光 Xiaoguang Liu (id:1275580)

冯瓅 Li Feng (id:1319504)

赵樱子 Yingzi Zhao (id:1329785)

李天余 Tianyu Li (id:1446207)

◎简 介

故事讲述了宫平(刘小光 饰)自产自销骨灰盒,却阴差阳错踏上了为亿万富豪(冯粒 饰)圆梦的爆笑故事。

宫平和王大业一路囧事百出,反转场面层出不穷。为完成富豪再见初恋的愿望,宫平和王大业开着80岁的老汽车,便开启了一场逗趣横生的公路之旅。可想而知旅途并不顺利,二人刚上路便撞飞了路人,准备不足的二人竟用骨灰盒作为赔偿并迅速逃离。而当二人终于经历千辛万苦见到初恋,昔日梦中情人化身黄脸婆拿起了杀猪刀?一转眼相见竟不如相恋!

  1. ##### MediaInfo ######

  2. General

  3. Unique ID : 252086715700096334562008007781618444325 (0xBDA622ABDCA69FEE6833679A61166825)

  4. Complete name : Ge.Liang.Er.Hao.2022.1080p.WEB-DL.H265.AAC-PTerWEB.mkv

  5. Format : Matroska

  6. Format version : Version 4

  7. File size : 1.83 GiB

  8. Duration : 1 h 13 min

  9. Overall bit rate : 3 551 kb/s

  10. Encoded date : UTC 2022-04-10 07:35:11

  11. Writing application : mkvmerge v58.0.0 ('Supper's Ready') 64-bit

  12. Writing library : libebml v1.4.2 + libmatroska v1.6.4

  13. Video

  14. ID : 1

  15. Format : HEVC

  16. Format/Info : High Efficiency Video Coding

  17. Format profile : [email protected]@Main

  18. Codec ID : V_MPEGH/ISO/HEVC

  19. Duration : 1 h 13 min

  20. Bit rate : 3 359 kb/s

  21. Width : 1 920 pixels

  22. Height : 800 pixels

  23. Display aspect ratio : 2.40:1

  24. Frame rate mode : Constant

  25. Frame rate : 24.000 FPS

  26. Color space : YUV

  27. Chroma subsampling : 4:2:0

  28. Bit depth : 8 bits

  29. Bits/(Pixel*Frame) : 0.091

  30. Stream size : 1.73 GiB (95%)

  31. Language : Chinese

  32. Default : Yes

  33. Forced : No

  34. Audio

  35. ID : 2

  36. Format : AAC LC

  37. Format/Info : Advanced Audio Codec Low Complexity

  38. Codec ID : A_AAC-2

  39. Duration : 1 h 13 min

  40. Bit rate : 192 kb/s

  41. Channel(s) : 2 channels

  42. Channel layout : L R

  43. Sampling rate : 44.1 kHz

  44. Frame rate : 43.066 FPS (1024 SPF)

  45. Compression mode : Lossy

  46. Stream size : 99.9 MiB (5%)

  47. Language : Chinese

  48. Default : Yes

  49. Forced : No


复制代码



文件下载


除非特别注明,本文『哥俩儿好[国语配音/中文字幕].Ge.Liang.Er.Hao.2022.1080p.WEB-DL.H265.AAC-NewWEB 1.83GB』来源于互联网机器人自动抓取,非本站原创。 浮游电影网不对本文拥有版权,如有侵犯,请联系邮箱:fuyouu#yandex.com[#换成@]投诉。我们会在15个工作日内删除。 但烦请转载时请标明出处:“本文转载于『浮游电影网』,原文地址:https://www.fuyouu.com/21264.html

评论吧骚年!

发表你的见解   

昵称*

E-mail*(建议输入,以便收到博主回复的提示邮件)

验证码*

您可以使用eMule或eMule Mod(Windows)、aMule(Win、Linux、Mac)等软件下载eD2k链接。。
eMule收藏集(.emulecollection)文件是您选中的所有链接的列表文件。eMule可以直接下载它们。
按住SHIFT键选择可以选中多个选择框。
可用文件名和大小选择器来选择文件。
文件名选择器帮您根据文件名称或后缀来选择文件。不分大小写。
符号使用:
和:空格( )、+
不包含:-
或:|
转义:一对英文引号("");
匹配开头:^
匹配结尾:$
例如:
选中所有名称中包含有“eMule”或“0.49c”字眼,但不包含有“exe”字眼的:emule|0.49c -exe
选中所有名称的开头是“eMule”,结尾是“0.49c”的:^emule 0.49c$
选中所有名称中带有“eMule 0.49c”的(必须是“eMule 0.49c”,中间没有别的字符,不能是“eMule fake 0.49c”),需要转义:"emule 0.49c"
大小选择器帮您根据文件大小选择文件。