当前位置: 首页 >> 欧美电影 >> 天师斗僵尸[中英字幕].Fright.Night.1985.BluRay.1080p.DTS-HD.MA.5.1.x265-OPT 11.87GB >> 正文

天师斗僵尸[中英字幕].Fright.Night.1985.BluRay.1080p.DTS-HD.MA.5.1.x265-OPT 11.87GB

2022年04月12日 14:38:56     电影发布:来源于网络     电影分类:欧美电影     评论(0)    

天师斗僵尸[中英字幕].Fright.Night.1985.BluRay.1080p.DTS HD.MA.5.1.x265 OPT 11.87GB 恐怖 惊悚 喜剧 欧美电影  第1张

◎译 名 天师斗僵尸

◎片 名 Fright Night

◎年 代 1985

◎产 地 美国

◎类 别 喜剧 / 惊悚 / 恐怖

◎语 言 英语

◎上映日期 1985-08-02

◎IMDb链接 https://www.imdb.com/title/tt0089175/

◎豆瓣评分 6.6/10 (990人评价)

◎豆瓣链接 https://movie.douban.com/subject/1295190/

◎片 长 106 分钟

◎导 演 汤姆·霍兰德 Tom Holland (id:1009463)

◎编 剧 汤姆·霍兰德 Tom Holland (id:1009463)

◎演 员 克里斯·萨兰登 Chris Sarandon (id:1025203)

威廉·罗格斯戴尔 William Ragsdale (id:1013895)

阿曼达·比尔斯 Amanda Bearse (id:1022685)

罗迪·麦克道尔 Roddy McDowall (id:1049620)

斯蒂芬·杰弗里斯 Stephen Geoffreys (id:1100032)

Jonathan Stark Jonathan Stark (id:1004994)

Jan Kiesser Jan Kiesser (id:1288519)

杰基?伯奇 Jackie Burch (id:1279621)

Jerry Adams Jerry Adams (id:1276806)

Bill Sturgeon Bill Sturgeon (id:1298591)

里克·斯特拉顿 Rick Stratton (id:1298538)

肯·迪亚兹 Ken Diaz (id:1282388)

布伦特·博茨 Brent Boates (id:1278850)

Sean Newton Sean Newton (id:1293109)

Steve Neill Steve Neill (id:1293008)

米歇尔·莫恩 Michele Moen (id:1292270)

尼尔·克雷佩拉 Neil Krepela (id:1289019)

加里·沃勒 Garry Waller (id:1300338)

史蒂夫·约翰逊 Steve Johnson (id:1287818)

马修·尤里奇 Matthew Yuricich (id:1301579)

兰德尔·威廉·库克 Randall William Cook (id:1281196)

Laura Buff Laura Buff (id:1279586)

约翰·布鲁诺 John Bruno (id:1279507)

◎简 介

吸血鬼狂热爱好者查理?布莱维斯特(William Ragsdale 饰)最大的爱好就是在深夜看恐怖电影。某晚,他隔壁的空房子里来了两个不速之客,根据多年观看恐怖片的经验,查理断定这两个人一定是吸血鬼。然而无论是警察,还是好友女友,没有一个人相信他的说辞。

万般无奈之下,查理只能请来恐怖电视节目“颤栗之夜”的主持人皮特?文森特(Roddy McDowell 饰)。虽然文森特质疑查理的说法,但看在钱的份上他还是前来调查。面对纠缠不休的查理,吸血鬼杰瑞(Chris Sarandon 饰)该如何对付呢?

  1. ##### MediaInfo ######

  2. General

  3. Unique ID : 181203062505839304997971122616815992845 (0x885270BEACC0B7DD344AE06D061E400D)

  4. Complete name : Fright.Night.1985.BluRay.1080p.DTS-HD.MA.5.1.x265-HDH.mkv

  5. Format : Matroska

  6. Format version : Version 4

  7. File size : 11.9 GiB

  8. Duration : 1 h 46 min

  9. Overall bit rate mode : Variable

  10. Overall bit rate : 16.0 Mb/s

  11. Movie name : Fright Night

  12. Encoded date : UTC 2022-04-11 02:05:56

  13. Writing application : mkvmerge v59.0.0 ('Shining Star') 64-bit

  14. Writing library : libebml v1.4.2 + libmatroska v1.6.4

  15. Cover : Yes

  16. Attachments : Cover.jpg

  17. Video

  18. ID : 1

  19. Format : HEVC

  20. Format/Info : High Efficiency Video Coding

  21. Format profile : Main [email protected]@High

  22. Codec ID : V_MPEGH/ISO/HEVC

  23. Duration : 1 h 46 min

  24. Bit rate : 12.1 Mb/s

  25. Width : 1 920 pixels

  26. Height : 800 pixels

  27. Display aspect ratio : 2.40:1

  28. Frame rate mode : Constant

  29. Frame rate : 23.976 (24000/1001/53354) FPS

  30. Color space : YUV

  31. Chroma subsampling : 4:2:0

  32. Bit depth : 10 bits

  33. Bits/(Pixel*Frame) : 0.329

  34. Stream size : 9.02 GiB (76%)

  35. Default : Yes

  36. Forced : No

  37. Color range : Limited

  38. Color primaries : BT.709

  39. Transfer characteristics : BT.709

  40. Matrix coefficients : BT.709

  41. Audio

  42. ID : 2

  43. Format : DTS XLL

  44. Format/Info : Digital Theater Systems

  45. Commercial name : DTS-HD Master Audio

  46. Codec ID : A_DTS

  47. Duration : 1 h 46 min

  48. Bit rate mode : Variable

  49. Bit rate : 3 793 kb/s

  50. Channel(s) : 6 channels

  51. Channel layout : C L R Ls Rs LFE

  52. Sampling rate : 48.0 kHz

  53. Frame rate : 93.750 FPS (512 SPF)

  54. Bit depth : 24 bits

  55. Compression mode : Lossless

  56. Stream size : 2.82 GiB (24%)

  57. Language : English

  58. Default : Yes

  59. Forced : No

  60. Text #1

  61. ID : 3

  62. Format : PGS

  63. Muxing mode : zlib

  64. Codec ID : S_HDMV/PGS

  65. Codec ID/Info : Picture based subtitle format used on BDs/HD-DVDs

  66. Duration : 1 h 46 min

  67. Bit rate : 22.9 kb/s

  68. Count of elements : 2542

  69. Stream size : 17.4 MiB (0%)

  70. Language : English

  71. Default : Yes

  72. Forced : No

  73. Text #2

  74. ID : 4

  75. Format : PGS

  76. Muxing mode : zlib

  77. Codec ID : S_HDMV/PGS

  78. Codec ID/Info : Picture based subtitle format used on BDs/HD-DVDs

  79. Duration : 1 h 42 min

  80. Bit rate : 19.6 kb/s

  81. Count of elements : 1152

  82. Stream size : 14.4 MiB (0%)

  83. Title : 简体中字

  84. Language : Chinese

  85. Default : Yes

  86. Forced : No

  87. Text #3

  88. ID : 5

  89. Format : PGS

  90. Muxing mode : zlib

  91. Codec ID : S_HDMV/PGS

  92. Codec ID/Info : Picture based subtitle format used on BDs/HD-DVDs

  93. Duration : 1 h 42 min

  94. Bit rate : 20.2 kb/s

  95. Count of elements : 1152

  96. Stream size : 14.8 MiB (0%)

  97. Title : 繁体中字

  98. Language : Chinese

  99. Default : Yes

  100. Forced : No

  101. Text #4

  102. ID : 6

  103. Format : UTF-8

  104. Codec ID : S_TEXT/UTF8

  105. Codec ID/Info : UTF-8 Plain Text

  106. Duration : 1 h 42 min

  107. Bit rate : 25 b/s

  108. Count of elements : 576

  109. Stream size : 19.1 KiB (0%)

  110. Title : 简体中字

  111. Language : Chinese

  112. Default : Yes

  113. Forced : No

  114. Text #5

  115. ID : 7

  116. Format : UTF-8

  117. Codec ID : S_TEXT/UTF8

  118. Codec ID/Info : UTF-8 Plain Text

  119. Duration : 1 h 42 min

  120. Bit rate : 25 b/s

  121. Count of elements : 576

  122. Stream size : 19.1 KiB (0%)

  123. Title : 繁体中字

  124. Language : Chinese

  125. Default : Yes

  126. Forced : No

  127. Menu

  128. 00:00:00.000 : (01)00:00:00:000

  129. 00:08:59.288 : (02)00:08:59:288

  130. 00:17:27.546 : (03)00:17:27:546

  131. 00:24:54.701 : (04)00:24:54:701

  132. 00:35:13.027 : (05)00:35:13:027

  133. 00:44:57.945 : (06)00:44:57:945

  134. 00:53:21.489 : (07)00:53:21:489

  135. 01:02:02.218 : (08)01:02:02:218

  136. 01:14:04.064 : (09)01:14:04:064

  137. 01:23:24.541 : (10)01:23:24:541

  138. 01:30:07.235 : (11)01:30:07:235

  139. 01:40:55.966 : (12)01:40:55:966



文件下载


除非特别注明,本文『天师斗僵尸[中英字幕].Fright.Night.1985.BluRay.1080p.DTS-HD.MA.5.1.x265-OPT 11.87GB』来源于互联网机器人自动抓取,非本站原创。 浮游电影网不对本文拥有版权,如有侵犯,请联系邮箱:fuyouu#yandex.com[#换成@]投诉。我们会在15个工作日内删除。 但烦请转载时请标明出处:“本文转载于『浮游电影网』,原文地址:https://www.fuyouu.com/21262.html

评论吧骚年!

发表你的见解   

昵称*

E-mail*(建议输入,以便收到博主回复的提示邮件)

验证码*

您可以使用eMule或eMule Mod(Windows)、aMule(Win、Linux、Mac)等软件下载eD2k链接。。
eMule收藏集(.emulecollection)文件是您选中的所有链接的列表文件。eMule可以直接下载它们。
按住SHIFT键选择可以选中多个选择框。
可用文件名和大小选择器来选择文件。
文件名选择器帮您根据文件名称或后缀来选择文件。不分大小写。
符号使用:
和:空格( )、+
不包含:-
或:|
转义:一对英文引号("");
匹配开头:^
匹配结尾:$
例如:
选中所有名称中包含有“eMule”或“0.49c”字眼,但不包含有“exe”字眼的:emule|0.49c -exe
选中所有名称的开头是“eMule”,结尾是“0.49c”的:^emule 0.49c$
选中所有名称中带有“eMule 0.49c”的(必须是“eMule 0.49c”,中间没有别的字符,不能是“eMule fake 0.49c”),需要转义:"emule 0.49c"
大小选择器帮您根据文件大小选择文件。