当前位置: 首页 >> 海外电影 >> 乱战[中英字幕].Chaos.2005.BluRay.1080p.DTS-HD.MA.5.1.x265-OPT 8.90GB >> 正文

乱战[中英字幕].Chaos.2005.BluRay.1080p.DTS-HD.MA.5.1.x265-OPT 8.90GB

2022年04月12日 14:37:57     电影发布:来源于网络     电影分类:海外电影     评论(0)    

乱战[中英字幕].Chaos.2005.BluRay.1080p.DTS HD.MA.5.1.x265 OPT 8.90GB 犯罪 惊悚 动作 剧情 海外电影  第1张

◎译 名 乱战 / 超完美抢案(台) / 混乱作战

◎片 名 Chaos

◎年 代 2005

◎产 地 加拿大

◎类 别 剧情 / 动作 / 惊悚 / 犯罪

◎语 言 英语

◎上映日期 2007-03-09(中国大陆) / 2005-12-15(美国)

◎IMDb链接 https://www.imdb.com/title/tt0402910/

◎豆瓣评分 7.1/10 (18422人评价)

◎豆瓣链接 https://movie.douban.com/subject/1493481/

◎片 长 106分钟

◎导 演 托尼·基格里奥 Tony Giglio (id:1018559)

◎编 剧 托尼·基格里奥 Tony Giglio (id:1018559)

◎演 员 杰森·斯坦森 Jason Statham (id:1049484)

瑞恩·菲利普 Ryan Phillippe (id:1040999)

韦斯利·斯奈普斯 Wesley Snipes (id:1022591)

亨利·科泽尼 Henry Czerny (id:1007013)

贾斯蒂恩·瓦戴尔 Justine Waddell (id:1040636)

尼古拉斯·李 Nicholas Lea (id:1010661)

杰西卡·斯汀 Jessica Steen (id:1036491)

约翰·卡西尼 John Cassini (id:1280258)

保罗·佩里 Paul Perri (id:1128636)

基冈·康纳·特雷西 Keegan Connor Tracy (id:1152919)

娜塔莎·迈尔兹 Natassia Malthe (id:1013863)

泰·奥尔森 Ty Olsson (id:1323797)

特瑞·陈 Terry Chen (id:1004684)

麦克·多普德 Mike Dopud (id:1088714)

Gaston Howard Gaston Howard (id:1286988)

加文·克罗斯 Garvin Cross (id:1342113)

基马尼·雷·史密斯 Kimani Ray Smith (id:1032995)

克尔斯滕·奥尔特 Kirsten Alter (id:1386078)

迈克尔·亚当思韦特 Michael Adamthwaite (id:1169457)

达西·劳瑞 Darcy Laurie (id:1110217)

艾米·阿内克 Emy Aneke (id:1390019)

艾里斯·佩卢莉 Iris Paluly (id:1201190)

詹姆斯·阿什克罗夫特 James Ashcroft (id:1058016)

富尔·切切里 Fulvio Cecere (id:1079001)

Mike Mitchell Mike Mitchell (id:1292228)

帕斯卡尔·休顿 Pascale Hutton (id:1173967)

Angelique Naude (id:1232144)

阿伦·道格拉斯 Aaron Douglas (id:1085764)

Maciej Damiecki Maciej Damiecki (id:1069095)

Anna Chitro Anna Chitro (id:1071450)

Gavin Wilding Gavin Wilding (id:1300918)

崔佛·琼斯 Trevor Jones (id:1055597)

理查德·格里特雷克斯 Richard Greatrex (id:1285346)

Sean Barton Sean Barton (id:1003585)

海克·布兰德斯塔特 Heike Brandstatter (id:1279200)

科琳·梅尔斯 Coreen Mayrs (id:1291380)

Anne Spiers Anne Spiers (id:1298163)

Jennifer Cote Jennifer Cote (id:1304892)

安迪·阿姆斯特朗 Andy Armstrong (id:1058794)

Debra Herst Debra Herst (id:1286526)

Shelley Kreutz Shelley Kreutz (id:1206056)

David Bush David Bush (id:1043110)

◎简 介

曾负威望的纽约警探康纳斯(杰森·斯坦森 Jason Statham 饰)不料在一次执行任务中,意外射杀了人质,因此被停职。就在他复职后不久,棘手的劫持事件又发生了,5名训练有素的歹徒控制了一家银行,歹徒头目与康纳斯通话,并用折磨人质来刺激他,康纳斯才意识到对方正是自己曾经误杀的人质的兄弟,形势变得紧张而复杂起来。就在康纳斯与一名年轻警察德克尔(瑞恩·菲利普 Ryan Phillippe 饰)准备潜入银行之时,歹徒引爆了炸弹并趁乱逃走。然而令人意想不到的是,这一切只是开始,更大的迷局还在后面。随着案件调查深入,董事长也牵扯进来,甚至康纳斯本人与歹徒的复杂关系也渐露水面,一切看似无关而混乱的事件,已悄然编织成一张大网,笼罩着众人……

  1. ##### MediaInfo ######

  2. General

  3. Unique ID : 91552718880192431104589161964782881889 (0x44E0698B0F74B7932A968BA30A0E0C61)

  4. Complete name : Chaos.2005.BluRay.1080p.DTS-HD.MA.5.1.x265-HDH.mkv

  5. Format : Matroska

  6. Format version : Version 4

  7. File size : 8.90 GiB

  8. Duration : 1 h 46 min

  9. Overall bit rate mode : Variable

  10. Overall bit rate : 11.9 Mb/s

  11. Movie name : Chaos

  12. Encoded date : UTC 2022-04-11 01:37:54

  13. Writing application : mkvmerge v59.0.0 ('Shining Star') 64-bit

  14. Writing library : libebml v1.4.2 + libmatroska v1.6.4

  15. Cover : Yes

  16. Attachments : Cover.jpg

  17. Video

  18. ID : 1

  19. Format : HEVC

  20. Format/Info : High Efficiency Video Coding

  21. Format profile : Main [email protected]@High

  22. Codec ID : V_MPEGH/ISO/HEVC

  23. Duration : 1 h 46 min

  24. Bit rate : 6 747 kb/s

  25. Width : 1 920 pixels

  26. Height : 816 pixels

  27. Display aspect ratio : 2.35:1

  28. Frame rate mode : Constant

  29. Frame rate : 23.976 (24000/1001/53354) FPS

  30. Color space : YUV

  31. Chroma subsampling : 4:2:0

  32. Bit depth : 10 bits

  33. Bits/(Pixel*Frame) : 0.180

  34. Stream size : 5.01 GiB (56%)

  35. Default : Yes

  36. Forced : No

  37. Color range : Limited

  38. Color primaries : BT.709

  39. Transfer characteristics : BT.709

  40. Matrix coefficients : BT.709

  41. Audio

  42. ID : 2

  43. Format : DTS XLL

  44. Format/Info : Digital Theater Systems

  45. Commercial name : DTS-HD Master Audio

  46. Codec ID : A_DTS

  47. Duration : 1 h 46 min

  48. Bit rate mode : Variable

  49. Bit rate : 5 122 kb/s

  50. Channel(s) : 8 channels

  51. Channel layout : C L R LFE Lb Rb Lss Rss

  52. Sampling rate : 48.0 kHz

  53. Frame rate : 93.750 FPS (512 SPF)

  54. Bit depth : 24 bits

  55. Compression mode : Lossless

  56. Stream size : 3.82 GiB (43%)

  57. Language : English

  58. Default : Yes

  59. Forced : No

  60. Text #1

  61. ID : 3

  62. Format : PGS

  63. Muxing mode : zlib

  64. Codec ID : S_HDMV/PGS

  65. Codec ID/Info : Picture based subtitle format used on BDs/HD-DVDs

  66. Duration : 1 h 39 min

  67. Bit rate : 32.5 kb/s

  68. Count of elements : 2482

  69. Stream size : 23.2 MiB (0%)

  70. Language : English

  71. Default : Yes

  72. Forced : No

  73. Text #2

  74. ID : 4

  75. Format : PGS

  76. Muxing mode : zlib

  77. Codec ID : S_HDMV/PGS

  78. Codec ID/Info : Picture based subtitle format used on BDs/HD-DVDs

  79. Duration : 1 h 41 min

  80. Bit rate : 34.0 kb/s

  81. Count of elements : 2608

  82. Stream size : 24.6 MiB (0%)

  83. Language : English

  84. Default : Yes

  85. Forced : No

  86. Text #3

  87. ID : 5

  88. Format : PGS

  89. Muxing mode : zlib

  90. Codec ID : S_HDMV/PGS

  91. Codec ID/Info : Picture based subtitle format used on BDs/HD-DVDs

  92. Duration : 1 h 41 min

  93. Bit rate : 33.7 kb/s

  94. Count of elements : 2632

  95. Stream size : 24.5 MiB (0%)

  96. Language : Spanish

  97. Default : Yes

  98. Forced : No

  99. Text #4

  100. ID : 6

  101. Format : PGS

  102. Muxing mode : zlib

  103. Codec ID : S_HDMV/PGS

  104. Codec ID/Info : Picture based subtitle format used on BDs/HD-DVDs

  105. Duration : 1 h 40 min

  106. Bit rate : 35.1 kb/s

  107. Count of elements : 2598

  108. Stream size : 25.3 MiB (0%)

  109. Title : 简体中字

  110. Language : Chinese

  111. Default : Yes

  112. Forced : No

  113. Text #5

  114. ID : 7

  115. Format : PGS

  116. Muxing mode : zlib

  117. Codec ID : S_HDMV/PGS

  118. Codec ID/Info : Picture based subtitle format used on BDs/HD-DVDs

  119. Duration : 1 h 40 min

  120. Bit rate : 35.9 kb/s

  121. Count of elements : 2598

  122. Stream size : 25.9 MiB (0%)

  123. Title : 繁体中字

  124. Language : Chinese

  125. Default : Yes

  126. Forced : No

  127. Text #6

  128. ID : 8

  129. Format : UTF-8

  130. Codec ID : S_TEXT/UTF8

  131. Codec ID/Info : UTF-8 Plain Text

  132. Duration : 1 h 40 min

  133. Bit rate : 48 b/s

  134. Count of elements : 1299

  135. Stream size : 35.8 KiB (0%)

  136. Title : 简体中字

  137. Language : Chinese

  138. Default : Yes

  139. Forced : No

  140. Text #7

  141. ID : 9

  142. Format : UTF-8

  143. Codec ID : S_TEXT/UTF8

  144. Codec ID/Info : UTF-8 Plain Text

  145. Duration : 1 h 40 min

  146. Bit rate : 48 b/s

  147. Count of elements : 1299

  148. Stream size : 35.8 KiB (0%)

  149. Title : 繁体中字

  150. Language : Chinese

  151. Default : Yes

  152. Forced : No

  153. Menu

  154. 00:00:00.000 : (01)00:00:00:000

  155. 00:04:39.404 : (02)00:04:39:404

  156. 00:10:29.128 : (03)00:10:29:128

  157. 00:20:36.526 : (04)00:20:36:526

  158. 00:26:19.578 : (05)00:26:19:578

  159. 00:31:17.000 : (06)00:31:17:000

  160. 00:39:13.184 : (07)00:39:13:184

  161. 00:45:44.408 : (08)00:45:44:408

  162. 00:52:29.896 : (09)00:52:29:896

  163. 00:57:13.596 : (10)00:57:13:596

  164. 01:05:02.481 : (11)01:05:02:481

  165. 01:13:19.186 : (12)01:13:19:186

  166. 01:17:47.829 : (13)01:17:47:829

  167. 01:25:33.169 : (14)01:25:33:169

  168. 01:36:34.288 : (15)01:36:34:288

  169. 01:43:03.635 : (16)01:43:03:635

  170. 01:46:21.124 : (17)01:46:21:124




文件下载


除非特别注明,本文『乱战[中英字幕].Chaos.2005.BluRay.1080p.DTS-HD.MA.5.1.x265-OPT 8.90GB』来源于互联网机器人自动抓取,非本站原创。 浮游电影网不对本文拥有版权,如有侵犯,请联系邮箱:fuyouu#yandex.com[#换成@]投诉。我们会在15个工作日内删除。 但烦请转载时请标明出处:“本文转载于『浮游电影网』,原文地址:https://www.fuyouu.com/21261.html

评论吧骚年!

发表你的见解   

昵称*

E-mail*(建议输入,以便收到博主回复的提示邮件)

验证码*

您可以使用eMule或eMule Mod(Windows)、aMule(Win、Linux、Mac)等软件下载eD2k链接。。
eMule收藏集(.emulecollection)文件是您选中的所有链接的列表文件。eMule可以直接下载它们。
按住SHIFT键选择可以选中多个选择框。
可用文件名和大小选择器来选择文件。
文件名选择器帮您根据文件名称或后缀来选择文件。不分大小写。
符号使用:
和:空格( )、+
不包含:-
或:|
转义:一对英文引号("");
匹配开头:^
匹配结尾:$
例如:
选中所有名称中包含有“eMule”或“0.49c”字眼,但不包含有“exe”字眼的:emule|0.49c -exe
选中所有名称的开头是“eMule”,结尾是“0.49c”的:^emule 0.49c$
选中所有名称中带有“eMule 0.49c”的(必须是“eMule 0.49c”,中间没有别的字符,不能是“eMule fake 0.49c”),需要转义:"emule 0.49c"
大小选择器帮您根据文件大小选择文件。