当前位置: 首页 >> 日韩电影 >> 沉睡蝴蝶[简体字幕].Butterfly.Sleep.2017.1080p.BluRay.TrueHD.5.1.x264-OPT 10.77GB >> 正文

沉睡蝴蝶[简体字幕].Butterfly.Sleep.2017.1080p.BluRay.TrueHD.5.1.x264-OPT 10.77GB

2022年04月12日 14:37:02     电影发布:来源于网络     电影分类:日韩电影     评论(0)    

沉睡蝴蝶[简体字幕].Butterfly.Sleep.2017.1080p.BluRay.TrueHD.5.1.x264 OPT 10.77GB 爱情 剧情 日韩电影  第1张

◎译 名 沉睡蝴蝶 / 当爱沉睡时(台) / Butterfly Sleep / ???

◎片 名 蝶の眠り

◎年 代 2017

◎产 地 韩国 / 日本

◎类 别 剧情 / 爱情

◎语 言 日语 / 韩语

◎上映日期 2017-10-14(釜山国际电影节) / 2018-05-12(日本) / 2018-09-06(韩国)

◎IMDb链接 https://www.imdb.com/title/tt8938010/

◎豆瓣评分 6.9/10 (1264人评价)

◎豆瓣链接 https://movie.douban.com/subject/27137127/

◎片 长 110分钟

◎导 演 郑在恩 Jae-eun Jeong (id:1194718)

◎编 剧 郑在恩 Jae-eun Jeong (id:1194718)

◎演 员 中山美穗 Miho Nakayama (id:1032915)

金材昱 Jae-wook Kim (id:1262585)

真岛秀和 Hidekazu Mashima (id:1321815)

胜村政信 Masanobu Katsumura (id:1314383)

菅田俊 Shun Sugata (id:1008079)

石桥杏奈 Ishibashi Anna (id:1314182)

永濑正敏 Masatoshi Nagase (id:1010090)

涉谷麻美 Asami Shibuya (id:1414567)

◎简 介

54岁的凉子(中山美穗 饰)是一名小说家,一天,她突然被医生诊断患上了阿兹海默症,面对可怕的病魔,凉子决定利用自己所剩不多的时间,完成她人生中的最后一部小说。在写小说之余,凉子在大学里担任讲师的职务,一次下课后,凉子和学生们来到居酒屋小聚,在那里邂逅了名为昌海(金材昱 饰)的韩国留学生。

昌海的谈吐和三观都和同龄人不同,这点深深的吸引着凉子,让她想要了解这个男孩脑袋里的所思所想。凉子的手无法移动,于是她拜托昌海来成为自己的双手,帮助自己写作。在此过程中,两人之间产生了真挚的感情。但是凉子知道,这份感情不可能有一个美满的结局。

  1. ##### MediaInfo ######

  2. General

  3. Unique ID : 248620097299921373518803646077832584898 (0xBB0A7D3031C64DBB0A10C43116D0DEC2)

  4. Complete name : Butterfly.Sleep.2017.1080p.BluRay.TrueHD.5.1.x264-HDH.mkv

  5. Format : Matroska

  6. Format version : Version 4

  7. File size : 10.8 GiB

  8. Duration : 1 h 52 min

  9. Overall bit rate mode : Variable

  10. Overall bit rate : 13.7 Mb/s

  11. Encoded date : UTC 2018-11-22 11:49:02

  12. Writing application : mkvmerge v26.0.0 ('In The Game') 64-bit

  13. Writing library : libebml v1.3.6 + libmatroska v1.4.9

  14. Video

  15. ID : 1

  16. Format : AVC

  17. Format/Info : Advanced Video Codec

  18. Format profile : [email protected]

  19. Format settings : CABAC / 4 Ref Frames

  20. Format settings, CABAC : Yes

  21. Format settings, Reference frames : 4 frames

  22. Codec ID : V_MPEG4/ISO/AVC

  23. Duration : 1 h 51 min

  24. Bit rate : 10.2 Mb/s

  25. Width : 1 920 pixels

  26. Height : 1 040 pixels

  27. Display aspect ratio : 1.85:1

  28. Frame rate mode : Constant

  29. Frame rate : 23.976 (24000/1001/53354) FPS

  30. Color space : YUV

  31. Chroma subsampling : 4:2:0

  32. Bit depth : 8 bits

  33. Scan type : Progressive

  34. Bits/(Pixel*Frame) : 0.213

  35. Stream size : 7.98 GiB (74%)

  36. Writing library : x264 core 142 r2431+42 c69a006 tMod [[email protected]:2:0 X86_64]

  37. Encoding settings : cabac=1 / ref=4 / deblock=1:-3:-3 / analyse=0x3:0x113 / me=umh / subme=10 / psy=1 / fade_compensate=0.00 / psy_rd=1.00:0.05 / mixed_ref=1 / me_range=48 / chroma_me=1 / trellis=2 / 8x8dct=1 / cqm=0 / deadzone=21,11 / fast_pskip=0 / chroma_qp_offset=-2 / threads=48 / lookahead_threads=8 / sliced_threads=0 / nr=0 / decimate=1 / interlaced=0 / NTMzNTQ= / bluray_compat=0 / constrained_intra=0 / fgo=0 / bframes=8 / b_pyramid=2 / b_adapt=2 / b_bias=0 / direct=3 / weightb=1 / open_gop=0 / weightp=2 / keyint=250 / keyint_min=23 / NTMzNTQ=uuDQuD2mJt9fsCf / scenecut=40 / intra_refresh=0 / rc_lookahead=40 / rc=crf / mbtree=0 / crf=17.3000 / qcomp=0.60 / qpmin=0:0:0 / qpmax=69:69:69 / qpstep=4 / vbv_maxrate=40000 / vbv_bufsize=30000 / crf_max=0.0 / nal_hrd=none / filler=0 / NTMzNTQ=LmsMAP37EqsCpk / ip_ratio=1.40 / pb_ratio=1.30 / aq=3:0.80 / aq-sensitivity=10.00 / aq-factor=1.00:1.00:1.00 / aq2=0 / aq3=0

  38. Default : Yes

  39. Forced : No

  40. Color range : Limited

  41. Matrix coefficients : BT.709

  42. Audio #1

  43. ID : 2

  44. Format : MLP FBA

  45. Format/Info : Meridian Lossless Packing FBA

  46. Commercial name : Dolby TrueHD

  47. Codec ID : A_TRUEHD

  48. Duration : 1 h 51 min

  49. Bit rate mode : Variable

  50. Bit rate : 2 371 kb/s

  51. Maximum bit rate : 3 111 kb/s

  52. Channel(s) : 6 channels

  53. Channel layout : L R C LFE Ls Rs

  54. Sampling rate : 48.0 kHz

  55. Frame rate : 1 200.000 FPS (40 SPF)

  56. Compression mode : Lossless

  57. Stream size : 1.85 GiB (17%)

  58. Language : Japanese

  59. Default : Yes

  60. Forced : No

  61. Audio #2

  62. ID : 3

  63. Format : AC-3

  64. Format/Info : Audio Coding 3

  65. Commercial name : Dolby Digital

  66. Codec ID : A_AC3

  67. Duration : 1 h 51 min

  68. Bit rate mode : Constant

  69. Bit rate : 640 kb/s

  70. Channel(s) : 6 channels

  71. Channel layout : L R C LFE Ls Rs

  72. Sampling rate : 48.0 kHz

  73. Frame rate : 31.250 FPS (1536 SPF)

  74. Compression mode : Lossy

  75. Stream size : 512 MiB (5%)

  76. Language : Japanese

  77. Service kind : Complete Main

  78. Default : No

  79. Forced : No

  80. Audio #3

  81. ID : 4

  82. Format : AC-3

  83. Format/Info : Audio Coding 3

  84. Commercial name : Dolby Digital

  85. Codec ID : A_AC3

  86. Duration : 1 h 51 min

  87. Bit rate mode : Constant

  88. Bit rate : 448 kb/s

  89. Channel(s) : 6 channels

  90. Channel layout : L R C LFE Ls Rs

  91. Sampling rate : 48.0 kHz

  92. Frame rate : 31.250 FPS (1536 SPF)

  93. Compression mode : Lossy

  94. Stream size : 358 MiB (3%)

  95. Language : Japanese

  96. Service kind : Complete Main

  97. Default : No

  98. Forced : No

  99. Text #1

  100. ID : 5

  101. Format : PGS

  102. Muxing mode : zlib

  103. Codec ID : S_HDMV/PGS

  104. Codec ID/Info : Picture based subtitle format used on BDs/HD-DVDs

  105. Duration : 1 h 51 min

  106. Bit rate : 29.1 kb/s

  107. Count of elements : 2886

  108. Stream size : 23.3 MiB (0%)

  109. Language : Japanese

  110. Default : Yes

  111. Forced : No

  112. Text #2

  113. ID : 6

  114. Format : PGS

  115. Muxing mode : zlib

  116. Codec ID : S_HDMV/PGS

  117. Codec ID/Info : Picture based subtitle format used on BDs/HD-DVDs

  118. Duration : 1 h 52 min

  119. Bit rate : 23.0 kb/s

  120. Count of elements : 2214

  121. Stream size : 18.5 MiB (0%)

  122. Language : Chinese

  123. Default : No

  124. Forced : No

  125. Text #3

  126. ID : 7

  127. Format : PGS

  128. Muxing mode : zlib

  129. Codec ID : S_HDMV/PGS

  130. Codec ID/Info : Picture based subtitle format used on BDs/HD-DVDs

  131. Duration : 1 h 52 min

  132. Bit rate : 23.1 kb/s

  133. Count of elements : 2214

  134. Stream size : 18.5 MiB (0%)

  135. Language : Chinese

  136. Default : No

  137. Forced : No

  138. Menu

  139. 00:00:00.000 : :00:00:00.000

  140. 00:13:16.921 : :00:13:16.921

  141. 00:26:50.359 : :00:26:50.359

  142. 00:38:49.452 : :00:38:49.452

  143. 00:47:57.291 : :00:47:57.291

  144. 00:59:50.045 : :00:59:50.045

  145. 01:13:15.182 : :01:13:15.182

  146. 01:35:32.310 : :01:35:32.310


复制代码



文件下载


除非特别注明,本文『沉睡蝴蝶[简体字幕].Butterfly.Sleep.2017.1080p.BluRay.TrueHD.5.1.x264-OPT 10.77GB』来源于互联网机器人自动抓取,非本站原创。 浮游电影网不对本文拥有版权,如有侵犯,请联系邮箱:fuyouu#yandex.com[#换成@]投诉。我们会在15个工作日内删除。 但烦请转载时请标明出处:“本文转载于『浮游电影网』,原文地址:https://www.fuyouu.com/21260.html

评论吧骚年!

发表你的见解   

昵称*

E-mail*(建议输入,以便收到博主回复的提示邮件)

验证码*

您可以使用eMule或eMule Mod(Windows)、aMule(Win、Linux、Mac)等软件下载eD2k链接。。
eMule收藏集(.emulecollection)文件是您选中的所有链接的列表文件。eMule可以直接下载它们。
按住SHIFT键选择可以选中多个选择框。
可用文件名和大小选择器来选择文件。
文件名选择器帮您根据文件名称或后缀来选择文件。不分大小写。
符号使用:
和:空格( )、+
不包含:-
或:|
转义:一对英文引号("");
匹配开头:^
匹配结尾:$
例如:
选中所有名称中包含有“eMule”或“0.49c”字眼,但不包含有“exe”字眼的:emule|0.49c -exe
选中所有名称的开头是“eMule”,结尾是“0.49c”的:^emule 0.49c$
选中所有名称中带有“eMule 0.49c”的(必须是“eMule 0.49c”,中间没有别的字符,不能是“eMule fake 0.49c”),需要转义:"emule 0.49c"
大小选择器帮您根据文件大小选择文件。