当前位置: 首页 >> 欧美电影 >> 烽火赤焰万里情[中英字幕].Reds.1981.BluRay.1080p.TrueHD.5.1.x265-OPT 17.09GB >> 正文

烽火赤焰万里情[中英字幕].Reds.1981.BluRay.1080p.TrueHD.5.1.x265-OPT 17.09GB

2022年04月12日 14:32:58     电影发布:来源于网络     电影分类:欧美电影     评论(0)    

烽火赤焰万里情[中英字幕].Reds.1981.BluRay.1080p.TrueHD.5.1.x265 OPT 17.09GB 历史 传记 爱情 剧情 欧美电影  第1张

◎译 名 烽火赤焰万里情 / 乱世情天(港) / 烽火赤焰万里情(台) / 赤色分子

◎片 名 Reds

◎年 代 1981

◎产 地 美国 / 英国

◎类 别 剧情 / 爱情 / 传记 / 历史

◎语 言 英语 / 俄语 / 德语 / 法语 / 芬兰语 / 意大利语

◎上映日期 1981-12-03(美国)

◎IMDb链接 https://www.imdb.com/title/tt0082979/

◎豆瓣评分 8.0/10 (1554人评价)

◎豆瓣链接 https://movie.douban.com/subject/1292891/

◎片 长 195分钟

◎导 演 沃伦·比蒂 Warren Beatty (id:1002722)

◎编 剧 沃伦·比蒂 Warren Beatty (id:1002722)

特雷弗·格里菲思 Trevor Griffiths (id:1001605)

杰瑞米·皮克瑟 Jeremy Pikser (id:1294532)

◎演 员 沃伦·比蒂 Warren Beatty (id:1002722)

黛安·基顿 Diane Keaton (id:1053568)

杰克·尼科尔森 Jack Nicholson (id:1054528)

爱德华·赫曼 Edward Herrmann (id:1010634)

玛伦·斯塔普莱顿 Maureen Stapleton (id:1018119)

吉恩·哈克曼 Gene Hackman (id:1004589)

布伦达·柯林 Brenda Currin (id:1432969)

史蒂芬·桑德海姆 Stephen Sondheim (id:1000531)

维托里奥·斯托拉罗 Vittorio Storaro (id:1009683)

克雷格·麦凯 Craig McKay (id:1291636)

Barry Richardson Barry Richardson (id:1312522)

费恩·巴奇纳 Fern Buchner (id:1279549)

Enrique Gabriel Enrique Gabriel (id:1284371)

Robert Birnbaum Robert Birnbaum (id:1278679)

◎简 介

二十年代初期,响往共产主义的美国名记者约翰·雷德千方百计跑到十月革命之后的苏俄体验生活,追求理想的政治国度,并写出了轰动世界的报导文学《震动世界的十天》。然而,他最后对共产主义彻底失望,重回自由世界。

电影摘要: 第一幕:雷德和露易丝·布莱恩特在波特兰相遇。 第二幕:20世纪10年代在格林威治村的知识分子生活。雷德和露易丝被尤金·奥尼尔和艾玛·高曼等思想家吸引。 第三幕:雷德和露易丝接受俄国革命的影响。 第四幕:雷德试图在美国建立共产党。 第五幕:雷德来到俄国接受布尔什维克的帮助宣传社会主义。1920年雷德去世,年仅32岁。 五个部分充满了乱糟糟的争吵,换句话说,这很难让你对这段历史激起足够的兴趣。在第一部分,观众必须容忍长时间谄媚性的诱导。在这之后,则是雷德和露易丝一段奇怪的爱情:当他们彼此凝视,伴随着革命的高潮和八十年庸俗...

◎获奖情况 (共12项)

第54届奥斯卡金像奖 (1982)

最佳影片(提名)

└──沃伦·比蒂 (id:1002722)

最佳导演

└──沃伦·比蒂 (id:1002722)

最佳男主角(提名)

└──沃伦·比蒂 (id:1002722)

最佳女主角(提名)

└──黛安·基顿 (id:1053568)

最佳男配角(提名)

└──杰克·尼科尔森 (id:1054528)

最佳女配角

└──玛伦·斯塔普莱顿 (id:1018119)

最佳原创剧本(提名)

最佳摄影

└──维托里奥·斯托拉罗 (id:1009683)

最佳剪辑(提名)

最佳音响(提名)

最佳艺术指导(提名)

最佳服装设计(提名)

└──雪莉·拉塞尔 (id:1033652)

  1. ##### MediaInfo ######

  2. General

  3. Unique ID : 13553981146762524412768345218426093935 (0xA3266DD637736A4162EFD2B9F98416F)

  4. Complete name : Reds.1981.BluRay.1080p.TrueHD.5.1.x265-HDH.mkv

  5. Format : Matroska

  6. Format version : Version 4

  7. File size : 17.1 GiB

  8. Duration : 3 h 15 min

  9. Overall bit rate mode : Variable

  10. Overall bit rate : 12.5 Mb/s

  11. Movie name : Reds

  12. Encoded date : UTC 2022-04-11 02:12:46

  13. Writing application : mkvmerge v59.0.0 ('Shining Star') 64-bit

  14. Writing library : libebml v1.4.2 + libmatroska v1.6.4

  15. Cover : Yes

  16. Attachments : Cover.jpg

  17. Video

  18. ID : 1

  19. Format : HEVC

  20. Format/Info : High Efficiency Video Coding

  21. Format profile : Main [email protected]@High

  22. Codec ID : V_MPEGH/ISO/HEVC

  23. Duration : 3 h 15 min

  24. Bit rate : 8 744 kb/s

  25. Width : 1 920 pixels

  26. Height : 1 036 pixels

  27. Display aspect ratio : 1.85:1

  28. Frame rate mode : Constant

  29. Frame rate : 23.976 (24000/1001/53354) FPS

  30. Color space : YUV

  31. Chroma subsampling : 4:2:0

  32. Bit depth : 10 bits

  33. Bits/(Pixel*Frame) : 0.183

  34. Stream size : 11.9 GiB (70%)

  35. Default : Yes

  36. Forced : No

  37. Color range : Limited

  38. Color primaries : BT.709

  39. Transfer characteristics : BT.709

  40. Matrix coefficients : BT.709

  41. Audio #1

  42. ID : 2

  43. Format : MLP FBA

  44. Format/Info : Meridian Lossless Packing FBA

  45. Commercial name : Dolby TrueHD

  46. Codec ID : A_TRUEHD

  47. Duration : 3 h 15 min

  48. Bit rate mode : Variable

  49. Bit rate : 2 361 kb/s

  50. Maximum bit rate : 4 176 kb/s

  51. Channel(s) : 6 channels

  52. Channel layout : L R C LFE Ls Rs

  53. Sampling rate : 48.0 kHz

  54. Frame rate : 1 200.000 FPS (40 SPF)

  55. Compression mode : Lossless

  56. Stream size : 3.22 GiB (19%)

  57. Language : English

  58. Default : Yes

  59. Forced : No

  60. Audio #2

  61. ID : 3

  62. Format : AC-3

  63. Format/Info : Audio Coding 3

  64. Commercial name : Dolby Digital

  65. Codec ID : A_AC3

  66. Duration : 3 h 15 min

  67. Bit rate mode : Constant

  68. Bit rate : 640 kb/s

  69. Channel(s) : 6 channels

  70. Channel layout : L R C LFE Ls Rs

  71. Sampling rate : 48.0 kHz

  72. Frame rate : 31.250 FPS (1536 SPF)

  73. Compression mode : Lossy

  74. Stream size : 894 MiB (5%)

  75. Language : English

  76. Service kind : Complete Main

  77. Default : Yes

  78. Forced : No

  79. Audio #3

  80. ID : 4

  81. Format : AC-3

  82. Format/Info : Audio Coding 3

  83. Commercial name : Dolby Digital

  84. Codec ID : A_AC3

  85. Duration : 3 h 15 min

  86. Bit rate mode : Constant

  87. Bit rate : 640 kb/s

  88. Channel(s) : 6 channels

  89. Channel layout : L R C LFE Ls Rs

  90. Sampling rate : 48.0 kHz

  91. Frame rate : 31.250 FPS (1536 SPF)

  92. Compression mode : Lossy

  93. Stream size : 894 MiB (5%)

  94. Language : English

  95. Service kind : Complete Main

  96. Default : Yes

  97. Forced : No

  98. Text #1

  99. ID : 5

  100. Format : PGS

  101. Muxing mode : zlib

  102. Codec ID : S_HDMV/PGS

  103. Codec ID/Info : Picture based subtitle format used on BDs/HD-DVDs

  104. Duration : 3 h 13 min

  105. Bit rate : 51.2 kb/s

  106. Count of elements : 5964

  107. Stream size : 70.7 MiB (0%)

  108. Language : English

  109. Default : Yes

  110. Forced : No

  111. Text #2

  112. ID : 6

  113. Format : PGS

  114. Muxing mode : zlib

  115. Codec ID : S_HDMV/PGS

  116. Codec ID/Info : Picture based subtitle format used on BDs/HD-DVDs

  117. Duration : 3 h 13 min

  118. Bit rate : 54.9 kb/s

  119. Count of elements : 6424

  120. Stream size : 75.8 MiB (0%)

  121. Language : English

  122. Default : Yes

  123. Forced : No

  124. Text #3

  125. ID : 7

  126. Format : PGS

  127. Muxing mode : zlib

  128. Codec ID : S_HDMV/PGS

  129. Codec ID/Info : Picture based subtitle format used on BDs/HD-DVDs

  130. Duration : 3 h 15 min

  131. Bit rate : 44.5 kb/s

  132. Count of elements : 5808

  133. Stream size : 62.2 MiB (0%)

  134. Title : 简体中字

  135. Language : Chinese

  136. Default : Yes

  137. Forced : No

  138. Text #4

  139. ID : 8

  140. Format : PGS

  141. Muxing mode : zlib

  142. Codec ID : S_HDMV/PGS

  143. Codec ID/Info : Picture based subtitle format used on BDs/HD-DVDs

  144. Duration : 3 h 15 min

  145. Bit rate : 45.7 kb/s

  146. Count of elements : 5808

  147. Stream size : 63.8 MiB (0%)

  148. Title : 繁体中字

  149. Language : Chinese

  150. Default : Yes

  151. Forced : No

  152. Text #5

  153. ID : 9

  154. Format : UTF-8

  155. Codec ID : S_TEXT/UTF8

  156. Codec ID/Info : UTF-8 Plain Text

  157. Duration : 3 h 15 min

  158. Bit rate : 62 b/s

  159. Count of elements : 2923

  160. Stream size : 89.9 KiB (0%)

  161. Title : 简体中字

  162. Language : Chinese

  163. Default : Yes

  164. Forced : No

  165. Text #6

  166. ID : 10

  167. Format : UTF-8

  168. Codec ID : S_TEXT/UTF8

  169. Codec ID/Info : UTF-8 Plain Text

  170. Duration : 3 h 15 min

  171. Bit rate : 62 b/s

  172. Count of elements : 2923

  173. Stream size : 89.9 KiB (0%)

  174. Title : 繁体中字

  175. Language : Chinese

  176. Default : Yes

  177. Forced : No

  178. Menu

  179. 00:00:00.000 : (01)00:00:00:000

  180. 00:05:24.282 : (02)00:05:24:282

  181. 00:18:27.231 : (03)00:18:27:231

  182. 00:30:37.335 : (04)00:30:37:335

  183. 00:39:47.468 : (05)00:39:47:468

  184. 01:03:23.966 : (06)01:03:23:966

  185. 01:09:52.688 : (07)01:09:52:688

  186. 01:19:58.293 : (08)01:19:58:293

  187. 01:29:36.120 : (09)01:29:36:120

  188. 01:36:05.968 : (10)01:36:05:968

  189. 01:43:56.647 : (11)01:43:56:647

  190. 01:54:32.282 : (12)01:54:32:282

  191. 02:07:05.075 : (13)02:07:05:075

  192. 02:16:50.327 : (14)02:16:50:327

  193. 02:24:57.814 : (15)02:24:57:814

  194. 02:42:18.270 : (16)02:42:18:270

  195. 02:49:43.506 : (17)02:49:43:506

  196. 03:00:40.996 : (18)03:00:40:996

  197. 03:11:58.632 : (19)03:11:58:632



文件下载


除非特别注明,本文『烽火赤焰万里情[中英字幕].Reds.1981.BluRay.1080p.TrueHD.5.1.x265-OPT 17.09GB』来源于互联网机器人自动抓取,非本站原创。 浮游电影网不对本文拥有版权,如有侵犯,请联系邮箱:fuyouu#yandex.com[#换成@]投诉。我们会在15个工作日内删除。 但烦请转载时请标明出处:“本文转载于『浮游电影网』,原文地址:https://www.fuyouu.com/21256.html

评论吧骚年!

发表你的见解   

昵称*

E-mail*(建议输入,以便收到博主回复的提示邮件)

验证码*

您可以使用eMule或eMule Mod(Windows)、aMule(Win、Linux、Mac)等软件下载eD2k链接。。
eMule收藏集(.emulecollection)文件是您选中的所有链接的列表文件。eMule可以直接下载它们。
按住SHIFT键选择可以选中多个选择框。
可用文件名和大小选择器来选择文件。
文件名选择器帮您根据文件名称或后缀来选择文件。不分大小写。
符号使用:
和:空格( )、+
不包含:-
或:|
转义:一对英文引号("");
匹配开头:^
匹配结尾:$
例如:
选中所有名称中包含有“eMule”或“0.49c”字眼,但不包含有“exe”字眼的:emule|0.49c -exe
选中所有名称的开头是“eMule”,结尾是“0.49c”的:^emule 0.49c$
选中所有名称中带有“eMule 0.49c”的(必须是“eMule 0.49c”,中间没有别的字符,不能是“eMule fake 0.49c”),需要转义:"emule 0.49c"
大小选择器帮您根据文件大小选择文件。