当前位置: 首页 >> 港台电影 >> 人生得意衰尽欢[国语音轨/中英字幕].Pink.Bomb.1993.BluRay.1080p.DTS-HD.MA.2.0.x264-OPT 11.38GB >> 正文

人生得意衰尽欢[国语音轨/中英字幕].Pink.Bomb.1993.BluRay.1080p.DTS-HD.MA.2.0.x264-OPT 11.38GB

2022年04月12日 14:32:07     电影发布:来源于网络     电影分类:港台电影     评论(0)    

人生得意衰尽欢[国语音轨/中英字幕].Pink.Bomb.1993.BluRay.1080p.DTS HD.MA.2.0.x264 OPT 11.38GB 喜剧 港台电影  第1张

◎译 名 人生得意衰尽欢 / 红粉兵团 / Pink Bomb

◎片 名 人生得意衰盡歡

◎年 代 1993

◎产 地 中国香港

◎类 别 喜剧

◎语 言 粤语

◎上映日期 1993-03-27

◎IMDb链接 https://www.imdb.com/title/tt0107947/

◎豆瓣评分 6.1/10 (1008人评价)

◎豆瓣链接 https://movie.douban.com/subject/1780552/

◎片 长 95 分钟

◎导 演 赵崇基 Sung Kee Chiu (id:1280689)

◎编 剧 黄子华 Dayo Wong (id:1051476)

◎演 员 杨丽菁 Cynthia Khan (id:1037356)

刘青云 Sean Lau (id:1007251)

李子雄 Waise Lee (id:1037662)

李丽珍 Loletta Lee (id:1016848)

黄子华 Dayo Wong (id:1051476)

袁洁莹 Fennie Yuen (id:1051082)

叶蕴仪 Gloria Yip (id:1014952)

马安 An Ma (id:1418395)

宝佩如 Baby Bo (id:1388460)

冯克安 Hark-On Fung (id:1283563)

潘冰嫦 Bin Seung Poon (id:1321972)

陈裕光 Yu Guang Chen (id:1280585)

何添 Tim Ho (id:1408607)

彭伟华 Wai Wah Pang (id:1370961)

何永祥 Wing Cheung Ho (id:1361255)

◎简 介

在[日月旅行社]内一个[团友交谊会]上,看似虔诚基督的领队,其实是卧底国际刑警,他往泰国目的是以旅行团领队的身份,追查一宗伪钞案。一到曼谷,他便展开调查,无奈却发现伪钞集团因风声太紧,早已停止活动,茫无线索之下...... 刺激,搞鬼的故事由此展开!

其中在戏里黄子华用超市和快餐店的名称讲的粗口顺口溜,相当搞鬼!!

  1. ##### MediaInfo ######

  2. General

  3. Unique ID : 213195252575447770516803574111134853371 (0xA063E97EF7C4567B14698CE8BEB4A8FB)

  4. Complete name : Pink.Bomb.1993.BluRay.1080p.DTS-HD.MA.2.0.x264-HDH.mkv

  5. Format : Matroska

  6. Format version : Version 4

  7. File size : 11.4 GiB

  8. Duration : 1 h 29 min

  9. Overall bit rate mode : Variable

  10. Overall bit rate : 18.1 Mb/s

  11. Encoded date : UTC 2019-11-08 13:23:48

  12. Writing application : mkvmerge v31.0.0 ('Dolores In A Shoestand') 64-bit

  13. Writing library : libebml v1.3.6 + libmatroska v1.4.9

  14. Video

  15. ID : 1

  16. Format : AVC

  17. Format/Info : Advanced Video Codec

  18. Format profile : [email protected]

  19. Format settings : CABAC / 4 Ref Frames

  20. Format settings, CABAC : Yes

  21. Format settings, Reference frames : 4 frames

  22. Codec ID : V_MPEG4/ISO/AVC

  23. Duration : 1 h 29 min

  24. Bit rate : 14.9 Mb/s

  25. Width : 1 920 pixels

  26. Height : 1 080 pixels

  27. Display aspect ratio : 16:9

  28. Frame rate mode : Constant

  29. Frame rate : 25.000 FPS

  30. Color space : YUV

  31. Chroma subsampling : 4:2:0

  32. Bit depth : 8 bits

  33. Scan type : Progressive

  34. Bits/(Pixel*Frame) : 0.288

  35. Stream size : 9.37 GiB (82%)

  36. Writing library : x264 core 142 r2431+42 c69a006 tMod [[email protected]:2:0 X86_64]

  37. Encoding settings : cabac=1 / ref=4 / deblock=1:-3:-3 / analyse=0x3:0x113 / me=umh / subme=10 / psy=1 / fade_compensate=0.00 / psy_rd=1.00:0.05 / mixed_ref=1 / me_range=48 / chroma_me=1 / trellis=2 / 8x8dct=1 / cqm=0 / deadzone=21,11 / fast_pskip=0 / chroma_qp_offset=-2 / threads=48 / lookahead_threads=8 / sliced_threads=0 / nr=0 / decimate=1 / interlaced=0 / NTMzNTQ= / bluray_compat=0 / constrained_intra=0 / fgo=0 / bframes=8 / b_pyramid=2 / b_adapt=2 / b_bias=0 / direct=3 / weightb=1 / open_gop=0 / weightp=2 / keyint=250 / keyint_min=25 / NTMzNTQ=uuDQuD2mJt9fsCf / scenecut=40 / intra_refresh=0 / rc_lookahead=40 / rc=crf / mbtree=0 / crf=19.8000 / qcomp=0.60 / qpmin=0:0:0 / qpmax=69:69:69 / qpstep=4 / vbv_maxrate=40000 / vbv_bufsize=30000 / crf_max=0.0 / nal_hrd=none / filler=0 / NTMzNTQ=LmsMAP37EqsCpk / ip_ratio=1.40 / pb_ratio=1.30 / aq=3:0.80 / aq-sensitivity=10.00 / aq-factor=1.00:1.00:1.00 / aq2=0 / aq3=0

  38. Default : Yes

  39. Forced : No

  40. Color range : Limited

  41. Matrix coefficients : BT.709

  42. Audio #1

  43. ID : 2

  44. Format : DTS XLL

  45. Format/Info : Digital Theater Systems

  46. Commercial name : DTS-HD Master Audio

  47. Codec ID : A_DTS

  48. Duration : 1 h 29 min

  49. Bit rate mode : Variable

  50. Bit rate : 1 578 kb/s

  51. Channel(s) : 2 channels

  52. Channel layout : L R

  53. Sampling rate : 48.0 kHz

  54. Frame rate : 93.750 FPS (512 SPF)

  55. Bit depth : 16 bits

  56. Compression mode : Lossless

  57. Stream size : 1 015 MiB (9%)

  58. Language : Chinese

  59. Default : Yes

  60. Forced : No

  61. Audio #2

  62. ID : 3

  63. Format : DTS XLL

  64. Format/Info : Digital Theater Systems

  65. Commercial name : DTS-HD Master Audio

  66. Codec ID : A_DTS

  67. Duration : 1 h 29 min

  68. Bit rate mode : Variable

  69. Bit rate : 1 572 kb/s

  70. Channel(s) : 2 channels

  71. Channel layout : L R

  72. Sampling rate : 48.0 kHz

  73. Frame rate : 93.750 FPS (512 SPF)

  74. Bit depth : 16 bits

  75. Compression mode : Lossless

  76. Stream size : 1 011 MiB (9%)

  77. Language : Chinese

  78. Default : No

  79. Forced : No

  80. Text #1

  81. ID : 4

  82. Format : PGS

  83. Muxing mode : zlib

  84. Codec ID : S_HDMV/PGS

  85. Codec ID/Info : Picture based subtitle format used on BDs/HD-DVDs

  86. Duration : 1 h 27 min

  87. Bit rate : 49.7 kb/s

  88. Count of elements : 2454

  89. Stream size : 31.2 MiB (0%)

  90. Language : English

  91. Default : Yes

  92. Forced : No

  93. Text #2

  94. ID : 5

  95. Format : PGS

  96. Muxing mode : zlib

  97. Codec ID : S_HDMV/PGS

  98. Codec ID/Info : Picture based subtitle format used on BDs/HD-DVDs

  99. Duration : 1 h 27 min

  100. Bit rate : 46.1 kb/s

  101. Count of elements : 2454

  102. Stream size : 28.9 MiB (0%)

  103. Language : Chinese

  104. Default : No

  105. Forced : No

  106. Text #3

  107. ID : 6

  108. Format : PGS

  109. Muxing mode : zlib

  110. Codec ID : S_HDMV/PGS

  111. Codec ID/Info : Picture based subtitle format used on BDs/HD-DVDs

  112. Duration : 1 h 27 min

  113. Bit rate : 45.2 kb/s

  114. Count of elements : 2454

  115. Stream size : 28.4 MiB (0%)

  116. Language : Chinese

  117. Default : No

  118. Forced : No

  119. Menu

  120. 00:00:00.000 : :绗?01 绔?

  121. 00:07:35.400 : :绗?02 绔?

  122. 00:14:53.320 : :绗?03 绔?

  123. 00:21:58.560 : :绗?04 绔?

  124. 00:30:52.920 : :绗?05 绔?

  125. 00:38:59.760 : :绗?06 绔?

  126. 00:44:04.440 : :绗?07 绔?

  127. 00:52:13.640 : :绗?08 绔?

  128. 01:01:36.240 : :绗?09 绔?

  129. 01:09:17.600 : :绗?10 绔?

  130. 01:16:38.400 : :绗?11 绔?

  131. 01:22:31.800 : :绗?12 绔?


复制代码



文件下载


除非特别注明,本文『人生得意衰尽欢[国语音轨/中英字幕].Pink.Bomb.1993.BluRay.1080p.DTS-HD.MA.2.0.x264-OPT 11.38GB』来源于互联网机器人自动抓取,非本站原创。 浮游电影网不对本文拥有版权,如有侵犯,请联系邮箱:fuyouu#yandex.com[#换成@]投诉。我们会在15个工作日内删除。 但烦请转载时请标明出处:“本文转载于『浮游电影网』,原文地址:https://www.fuyouu.com/21255.html

评论吧骚年!

发表你的见解   

昵称*

E-mail*(建议输入,以便收到博主回复的提示邮件)

验证码*

您可以使用eMule或eMule Mod(Windows)、aMule(Win、Linux、Mac)等软件下载eD2k链接。。
eMule收藏集(.emulecollection)文件是您选中的所有链接的列表文件。eMule可以直接下载它们。
按住SHIFT键选择可以选中多个选择框。
可用文件名和大小选择器来选择文件。
文件名选择器帮您根据文件名称或后缀来选择文件。不分大小写。
符号使用:
和:空格( )、+
不包含:-
或:|
转义:一对英文引号("");
匹配开头:^
匹配结尾:$
例如:
选中所有名称中包含有“eMule”或“0.49c”字眼,但不包含有“exe”字眼的:emule|0.49c -exe
选中所有名称的开头是“eMule”,结尾是“0.49c”的:^emule 0.49c$
选中所有名称中带有“eMule 0.49c”的(必须是“eMule 0.49c”,中间没有别的字符,不能是“eMule fake 0.49c”),需要转义:"emule 0.49c"
大小选择器帮您根据文件大小选择文件。