当前位置: 首页 >> 欧美电影 >> 诺亚方舟:创世之旅[简繁英字幕].Noah.2014.BluRay.1080p.DTS-HD.MA.7.1.x265.10bit-ALT 16.17GB >> 正文

诺亚方舟:创世之旅[简繁英字幕].Noah.2014.BluRay.1080p.DTS-HD.MA.7.1.x265.10bit-ALT 16.17GB

2022年04月12日 14:31:04     电影发布:来源于网络     电影分类:欧美电影     评论(0)    

诺亚方舟:创世之旅[简繁英字幕].Noah.2014.BluRay.1080p.DTS HD.MA.7.1.x265.10bit ALT 16.17GB 灾难 冒险 动作 欧美电影  第1张

◎译 名 诺亚方舟:创世之旅 / 挪亚:灭世启示(港) / 诺亚

◎片 名 Noah

◎年 代 2014

◎产 地 美国

◎类 别 动作 / 冒险 / 灾难

◎语 言 英语

◎上映日期 2014-03-10(墨西哥首映) / 2014-03-28(美国)

◎IMDb链接 https://www.imdb.com/title/tt1959490/

◎豆瓣评分 5.9/10 (25565人评价)

◎豆瓣链接 https://movie.douban.com/subject/6959152/

◎片 长 138分钟

◎导 演 达伦·阿伦诺夫斯基 Darren Aronofsky (id:1041000)

◎编 剧 达伦·阿伦诺夫斯基 Darren Aronofsky (id:1041000)

阿里·韩德尔 Ari Handel (id:1338538)

◎演 员 罗素·克劳 Russell Crowe (id:1016674)

詹妮弗·康纳利 Jennifer Connelly (id:1016673)

雷·温斯顿 Ray Winstone (id:1006977)

安东尼·霍普金斯 Anthony Hopkins (id:1054434)

艾玛·沃森 Emma Watson (id:1053624)

罗根·勒曼 Logan Lerman (id:1053583)

道格拉斯·布斯 Douglas Booth (id:1314461)

尼克·诺特 Nick Nolte (id:1006989)

马克·马戈利斯 Mark Margolis (id:1123828)

凯文·杜兰 Kevin Durand (id:1013790)

莱奥·麦克休·卡罗尔 Leo McHugh Carroll (id:1385873)

马尔顿·索克斯 Marton Csokas (id:1009284)

芬·维特洛克 Finn Wittrock (id:1315253)

麦蒂森·达文波特 Madison Davenport (id:1040674)

加文·卡萨莱尼奥 Gavin Casalegno (id:1339466)

诺兰·格罗斯 Nolan Gross (id:1341942)

斯凯拉·伯克 Skylar Burke (id:1385874)

达科塔·高尤 Dakota Goyo (id:1233393)

阿丽亚娜·莱因哈特 Ariane Rinehart (id:1337341)

亚当·格里菲思 Adam Griffith (id:1385875)

苏菲·内薇德 Sophie Nyweide (id:1315478)

唐·哈维 Don Harvey (id:1345203)

萨米·盖尔 Sami Gayle (id:1319097)

巴里·斯隆 Barry Sloane (id:1203203)

弗兰克·兰格拉 Frank Langella (id:1013816)

戴维·J·马尔 Davy J. Marr (id:1385263)

布里安娜·威廉姆斯 Boriana Williams (id:1400807)

卢多维克·库托 Ludovic Coutaud (id:1371307)

阿诺恩·米尔坎 Arnon Milchan (id:1037087)

达伦·阿伦诺夫斯基 Darren Aronofsky (id:1041000)

克林特·曼塞尔 Clint Mansell (id:1014159)

马修·利巴提克 Matthew Libatique (id:1009698)

C·迈克尔·尼利 C. Michael Neely (id:1410102)

保罗·阿克里 Paolo Acri (id:1404816)

◎简 介

《诺亚方舟》根据圣经故事改编,由达伦·阿伦诺夫斯基亲自创作剧本和同名漫画。这是一个没有希望的世界,没有雨、没有粮食,军阀和野蛮的游牧部落统治一切。诺亚是这个残酷世界的一个好人,一个久经沙场的战士、法师和治疗师,他只想和家人过上安宁平静的生活。然而,每天晚上他都会被一个噩梦所折磨,梦里整个世界被一场大洪水吞没。久而久之他意识到,这正是造物主给他的讯号,上帝要惩罚人类,把他们杀光……但他给了诺亚一个机会,让他得以保存地球上的物种。

◎获奖情况 (共5项)

第72届金球奖 (2015)

电影类 最佳原创歌曲(提名)

第42届动画安妮奖 (2015)

最佳真人电影动画效果(提名)

第16届美国青少年选择奖 (2014)

最佳剧情片男演员(提名)

└──罗素·克劳 (id:1016674)

最佳剧情片女演员(提名)

└──艾玛·沃森 (id:1053624)

第1届豆瓣电影年度榜单 (2014)

评分最低的外语电影(提名)

  1. ##### MediaInfo ######

  2. General

  3. Unique ID : 140810426559028941031699771681870711886 (0x69EF1A08F566AD2650DF57E665040C4E)

  4. Complete name : Noah.2014.BluRay.1080p.DTS-HD.MA.7.1.x265.10bit-BeiTai.mkv

  5. Format : Matroska

  6. Format version : Version 4

  7. File size : 16.2 GiB

  8. Duration : 2 h 17 min

  9. Overall bit rate mode : Variable

  10. Overall bit rate : 16.8 Mb/s

  11. Encoded date : UTC 2022-04-10 10:50:34

  12. Writing application : mkvmerge v49.0.0 ('Sick Of Losing Soulmates') 64-bit

  13. Writing library : libebml v1.4.0 + libmatroska v1.6.1

  14. Video

  15. ID : 1

  16. Format : HEVC

  17. Format/Info : High Efficiency Video Coding

  18. Format profile : Main [email protected]@High

  19. Codec ID : V_MPEGH/ISO/HEVC

  20. Duration : 2 h 17 min

  21. Bit rate : 11.6 Mb/s

  22. Width : 1 920 pixels

  23. Height : 1 040 pixels

  24. Display aspect ratio : 1.85:1

  25. Frame rate mode : Constant

  26. Frame rate : 23.976 (24000/1001/53354) FPS

  27. Color space : YUV

  28. Chroma subsampling : 4:2:0

  29. Bit depth : 10 bits

  30. Bits/(Pixel*Frame) : 0.242

  31. Stream size : 11.1 GiB (69%)

  32. Title : HEVC, [email protected]@High, 24/1.001 fps @ 11573 kbps

  33. Writing library : x265 3.5+36-1f2c8da77:[Windows][GCC 11.2.0][64 bit] 10bit

  34. Encoding settings : cpuid=533541049583 / frame-threads=2 / numa-pools=4 / wpp / pmode / pme / no-psnr / no-ssim / log-level=2 / input-csp=1 / input-res=1920x1040 / interlace=0 / total-frames=198357 / level-idc=51 / high-tier=1 / uhd-bd=0 / ref=5 / no-allow-non-conformance / no-repeat-headers / annexb / no-aud / no-eob / no-eos / no-hrd / info / hash=0 / no-temporal-layers / open-gop / min-keyint=24 / keyint=240 / gop-lookahead=0 / bframes=6 / b-adapt=2 / b-pyramid / bframe-bias=0 / rc-lookahead=40 / lookahead-slices=0 / NTMzNTQ=uuDQuD2mJt9fsCf / scenecut=40 / no-hist-scenecut / radl=0 / no-splice / no-intra-refresh / ctu=32 / min-cu-size=8 / no-rect / no-amp / max-tu-size=32 / tu-inter-depth=3 / tu-intra-depth=3 / limit-tu=4 / rdoq-level=2 / dynamic-rd=0.00 / no-ssim-rd / signhide / no-tskip / nr-intra=0 / nr-inter=0 / no-constrained-intra / no-strong-intra-smoothing / max-merge=4 / limit-refs=1 / limit-modes / me=3 / subme=4 / merange=25 / temporal-mvp / no-frame-dup / no-hme / weightp / weightb / no-analyze-src-pics / deblock=-3:-3 / no-sao / no-sao-non-deblock / rd=6 / selective-sao=0 / no-early-skip / rskip / no-fast-intra / no-tskip-fast / no-cu-lossless / b-intra / no-splitrd-skip / rdpenalty=0 / psy-rd=2.00 / psy-rdoq=1.00 / no-rd-refine / no-lossless / cbqpoffs=0 / crqpoffs=0 / rc=crf / crf=18.5 / qcomp=0.65 / qpstep=4 / stats-write=0 / stats-read=0 / vbv-maxrate=80000 / vbv-bufsize=80000 / vbv-init=0.9 / min-vbv-fullness=50.0 / max-vbv-fullness=80.0 / crf-max=0.0 / crf-min=0.0 / ipratio=1.40 / pbratio=1.30 / aq-mode=2 / aq-strength=0.85 / cutree / zone-count=0 / no-strict-cbr / qg-size=32 / no-rc-grain / qpmax=69 / qpmin=0 / no-const-vbv / sar=1 / overscan=0 / videoformat=5 / range=0 / colorprim=1 / transfer=1 / colormatrix=1 / chromaloc=0 / display-window=0 / cll=0,0 / min-luma=0 / max-luma=1023 / log2-max-poc-lsb=8 / vui-timing-info / vui-hrd-info / slices=1 / no-opt-qp-pps / no-opt-ref-list-length-pps / no-multi-pass-opt-rps / scenecut-bias=0.05 / hist-threshold=0.03 / no-opt-cu-delta-qp / no-aq-motion / no-hdr10 / no-hdr10-opt / no-dhdr10-opt / no-idr-recovery-sei / analysis-reuse-level=0 / analysis-save-reuse-level=0 / analysis-load-reuse-level=0 / scale-factor=0 / refine-intra=0 / refine-inter=0 / refine-mv=1 / refine-ctu-distortion=0 / no-limit-sao / ctu-info=0 / no-lowpass-dct / refine-analysis-type=0 / copy-pic=1 / max-ausize-factor=1.0 / no-dynamic-refine / no-single-sei / no-hevc-aq / no-svt / no-field / qp-adaptation-range=1.00 / scenecut-aware-qp=0conformance-window-offsets / right=0 / bottom=0 / NTMzNTQ= / decoder-max-rate=0 / no-vbv-live-multi-pass

  35. Language : English

  36. Default : Yes

  37. Forced : No

  38. Color range : Limited

  39. Color primaries : BT.709

  40. Transfer characteristics : BT.709

  41. Matrix coefficients : BT.709

  42. Audio

  43. ID : 2

  44. Format : DTS XLL

  45. Format/Info : Digital Theater Systems

  46. Commercial name : DTS-HD Master Audio

  47. Codec ID : A_DTS

  48. Duration : 2 h 17 min

  49. Bit rate mode : Variable

  50. Bit rate : 5 149 kb/s

  51. Channel(s) : 8 channels

  52. Channel layout : C L R LFE Lb Rb Lss Rss

  53. Sampling rate : 48.0 kHz

  54. Frame rate : 93.750 FPS (512 SPF)

  55. Bit depth : 24 bits

  56. Compression mode : Lossless

  57. Stream size : 4.96 GiB (31%)

  58. Title : English DTS-HD Master Audio 7.1 @ 5149 kbps

  59. Language : English

  60. Default : Yes

  61. Forced : No

  62. Text #1

  63. ID : 3

  64. Format : PGS

  65. Codec ID : S_HDMV/PGS

  66. Codec ID/Info : Picture based subtitle format used on BDs/HD-DVDs

  67. Duration : 2 h 8 min

  68. Bit rate : 18.7 kb/s

  69. Count of elements : 2248

  70. Stream size : 17.1 MiB (0%)

  71. Title : Eng/SUP

  72. Language : English

  73. Default : No

  74. Forced : No

  75. Text #2

  76. ID : 4

  77. Format : PGS

  78. Codec ID : S_HDMV/PGS

  79. Codec ID/Info : Picture based subtitle format used on BDs/HD-DVDs

  80. Duration : 2 h 17 min

  81. Bit rate : 15.1 kb/s

  82. Count of elements : 2272

  83. Stream size : 14.9 MiB (0%)

  84. Title : Chs/SUP 原盘简体

  85. Language : Chinese

  86. Default : Yes

  87. Forced : No

  88. Text #3

  89. ID : 5

  90. Format : PGS

  91. Codec ID : S_HDMV/PGS

  92. Codec ID/Info : Picture based subtitle format used on BDs/HD-DVDs

  93. Duration : 2 h 17 min

  94. Bit rate : 12.4 kb/s

  95. Count of elements : 2204

  96. Stream size : 12.2 MiB (0%)

  97. Title : Cht/SUP 原盘繁体(HK)

  98. Language : Chinese

  99. Default : No

  100. Forced : No

  101. Text #4

  102. ID : 6

  103. Format : PGS

  104. Codec ID : S_HDMV/PGS

  105. Codec ID/Info : Picture based subtitle format used on BDs/HD-DVDs

  106. Duration : 2 h 17 min

  107. Bit rate : 15.4 kb/s

  108. Count of elements : 2274

  109. Stream size : 15.1 MiB (0%)

  110. Title : Cht/SUP 原盘繁体(TW)

  111. Language : Chinese

  112. Default : No

  113. Forced : No

  114. Menu

  115. 00:00:00.000 : en:第 01 章

  116. 00:04:48.955 : en:第 02 章

  117. 00:08:37.267 : en:第 03 章

  118. 00:12:23.034 : en:第 04 章

  119. 00:18:43.080 : en:第 05 章

  120. 00:23:25.487 : en:第 06 章

  121. 00:32:06.424 : en:第 07 章

  122. 00:37:27.203 : en:第 08 章

  123. 00:42:50.735 : en:第 09 章

  124. 00:54:35.647 : en:第 10 章

  125. 01:01:14.963 : en:第 11 章

  126. 01:03:28.596 : en:第 12 章

  127. 01:09:33.795 : en:第 13 章

  128. 01:19:18.337 : en:第 14 章

  129. 01:21:56.537 : en:第 15 章

  130. 01:29:12.347 : en:第 16 章

  131. 01:34:02.053 : en:第 17 章

  132. 01:40:27.355 : en:第 18 章

  133. 01:49:23.098 : en:第 19 章

  134. 01:55:57.826 : en:第 20 章

  135. 02:00:37.230 : en:第 21 章

  136. 02:11:32.676 : en:第 22 章


复制代码



文件下载


除非特别注明,本文『诺亚方舟:创世之旅[简繁英字幕].Noah.2014.BluRay.1080p.DTS-HD.MA.7.1.x265.10bit-ALT 16.17GB』来源于互联网机器人自动抓取,非本站原创。 浮游电影网不对本文拥有版权,如有侵犯,请联系邮箱:fuyouu#yandex.com[#换成@]投诉。我们会在15个工作日内删除。 但烦请转载时请标明出处:“本文转载于『浮游电影网』,原文地址:https://www.fuyouu.com/21254.html

评论吧骚年!

发表你的见解   

昵称*

E-mail*(建议输入,以便收到博主回复的提示邮件)

验证码*

您可以使用eMule或eMule Mod(Windows)、aMule(Win、Linux、Mac)等软件下载eD2k链接。。
eMule收藏集(.emulecollection)文件是您选中的所有链接的列表文件。eMule可以直接下载它们。
按住SHIFT键选择可以选中多个选择框。
可用文件名和大小选择器来选择文件。
文件名选择器帮您根据文件名称或后缀来选择文件。不分大小写。
符号使用:
和:空格( )、+
不包含:-
或:|
转义:一对英文引号("");
匹配开头:^
匹配结尾:$
例如:
选中所有名称中包含有“eMule”或“0.49c”字眼,但不包含有“exe”字眼的:emule|0.49c -exe
选中所有名称的开头是“eMule”,结尾是“0.49c”的:^emule 0.49c$
选中所有名称中带有“eMule 0.49c”的(必须是“eMule 0.49c”,中间没有别的字符,不能是“eMule fake 0.49c”),需要转义:"emule 0.49c"
大小选择器帮您根据文件大小选择文件。