当前位置: 首页 >> 海外电影 >> 职场心计文学梦[中英字幕].My.Salinger.Year.2020.BluRay.1080p.DTS-HD.MA.5.1.x265-OPT 8.35GB >> 正文

职场心计文学梦[中英字幕].My.Salinger.Year.2020.BluRay.1080p.DTS-HD.MA.5.1.x265-OPT 8.35GB

2022年04月12日 14:30:10     电影发布:来源于网络     电影分类:海外电影     评论(0)    

职场心计文学梦[中英字幕].My.Salinger.Year.2020.BluRay.1080p.DTS HD.MA.5.1.x265 OPT 8.35GB 剧情 海外电影  第1张

◎译 名 职场心计文学梦 / 我的塞林格之年 / 当我成为塞林格 / 我的塞林格岁月 / My New York Year

◎片 名 My Salinger Year

◎年 代 2020

◎产 地 加拿大 / 爱尔兰

◎类 别 剧情

◎语 言 英语

◎上映日期 2020-02-20(柏林电影节) / 2021-03-05(美国)

◎IMDb链接 https://www.imdb.com/title/tt2222052/

◎豆瓣评分 6.5/10 (812人评价)

◎豆瓣链接 https://movie.douban.com/subject/30220620/

◎片 长 101分钟

◎导 演 菲利普·法拉多 Philippe Falardeau (id:1274324)

◎编 剧 菲利普·法拉多 Philippe Falardeau (id:1274324)

乔安娜·拉科夫 Joanna Rakoff (id:1468858)

◎演 员 玛格丽特·库里 Margaret Qualley (id:1341251)

西格妮·韦弗 Sigourney Weaver (id:1053569)

道格拉斯·布斯 Douglas Booth (id:1314461)

莎娜·凯斯雷克 Seána Kerslake (id:1363129)

科鲁姆·费奥瑞 Colm Feore (id:1022706)

莱尼·帕克 Leni Parker (id:1129993)

孙晓 Xiao Sun (id:1373301)

加文·德里 Gavin Drea (id:1384003)

西奥多·佩尔兰 Théodore Pellerin (id:1367557)

布莱恩·F·奥博恩 Brian F. O'Byrne (id:1044987)

伊拉娜·盖尔 Elana Gale (id:1255111)

艾伦·大卫 Ellen David (id:1280977)

提姆·波斯特 Tim Post (id:1364684)

亚瑟·霍尔顿 Arthur Holden (id:1374236)

Yanic Truesdale Yanic Truesdale (id:1150245)

西尔维亚·斯图尔特 Sylvia Stewart (id:1152347)

翁德拉·多里安 Ondra Dorian (id:1396026)

马特·霍兰德 Matt Holland (id:1453008)

Patricia McNeil Patricia McNeil (id:1455977)

◎简 介

故事发生在90年代的纽约,结束研究生学业后,梦想成为作家的乔安娜(玛格丽特·奎利饰)被玛格丽特(西格妮·韦弗饰)雇佣为助手,后者是J·D·塞林格(J.D.Salinger)的文学经纪人,以保守和老派著称。乔安娜白天在一间豪华的木镶板办公室里工作,晚上和她信仰社 会主义的男友在布鲁克林一间破旧的公寓里过夜。她的主要工作内容是处理塞林格大量书迷的邮件。当细细阅读来自世界各地令人心碎的信件时,她不愿意用格式化和没有人情味的回复去搪塞书迷,并冲动地开始带着自己的感情回复邮件。这些邮件既幽默又感人,乔安娜在借用伟大作家的声音说话时,同时探索着属于自己的声音。

  1. ##### MediaInfo ######

  2. General

  3. Unique ID : 241940706022306475971945787031065301592 (0xB60415C5CD137669F569A5EE10FD9258)

  4. Complete name : My.Salinger.Year.2020.BluRay.1080p.DTS-HD.MA.5.1.x265-HDH.mkv

  5. Format : Matroska

  6. Format version : Version 4

  7. File size : 8.35 GiB

  8. Duration : 1 h 41 min

  9. Overall bit rate mode : Variable

  10. Overall bit rate : 11.8 Mb/s

  11. Movie name : My Salinger Year

  12. Encoded date : UTC 2022-04-11 00:27:01

  13. Writing application : mkvmerge v59.0.0 ('Shining Star') 64-bit

  14. Writing library : libebml v1.4.2 + libmatroska v1.6.4

  15. Cover : Yes

  16. Attachments : Cover.jpg

  17. Video

  18. ID : 1

  19. Format : HEVC

  20. Format/Info : High Efficiency Video Coding

  21. Format profile : Main [email protected]@High

  22. Codec ID : V_MPEGH/ISO/HEVC

  23. Duration : 1 h 41 min

  24. Bit rate : 8 438 kb/s

  25. Width : 1 920 pixels

  26. Height : 1 036 pixels

  27. Display aspect ratio : 1.85:1

  28. Frame rate mode : Constant

  29. Frame rate : 23.976 (24000/1001/53354) FPS

  30. Color space : YUV

  31. Chroma subsampling : 4:2:0

  32. Bit depth : 10 bits

  33. Bits/(Pixel*Frame) : 0.177

  34. Stream size : 5.97 GiB (71%)

  35. Default : Yes

  36. Forced : No

  37. Color range : Limited

  38. Color primaries : BT.709

  39. Transfer characteristics : BT.709

  40. Matrix coefficients : BT.709

  41. Audio

  42. ID : 2

  43. Format : DTS XLL

  44. Format/Info : Digital Theater Systems

  45. Commercial name : DTS-HD Master Audio

  46. Codec ID : A_DTS

  47. Duration : 1 h 41 min

  48. Bit rate mode : Variable

  49. Bit rate : 3 266 kb/s

  50. Channel(s) : 6 channels

  51. Channel layout : C L R Ls Rs LFE

  52. Sampling rate : 48.0 kHz

  53. Frame rate : 93.750 FPS (512 SPF)

  54. Bit depth : 24 bits

  55. Compression mode : Lossless

  56. Stream size : 2.31 GiB (28%)

  57. Language : English

  58. Default : Yes

  59. Forced : No

  60. Text #1

  61. ID : 3

  62. Format : PGS

  63. Muxing mode : zlib

  64. Codec ID : S_HDMV/PGS

  65. Codec ID/Info : Picture based subtitle format used on BDs/HD-DVDs

  66. Duration : 1 h 36 min

  67. Bit rate : 43.9 kb/s

  68. Count of elements : 2472

  69. Stream size : 30.2 MiB (0%)

  70. Language : English

  71. Default : Yes

  72. Forced : No

  73. Text #2

  74. ID : 4

  75. Format : PGS

  76. Muxing mode : zlib

  77. Codec ID : S_HDMV/PGS

  78. Codec ID/Info : Picture based subtitle format used on BDs/HD-DVDs

  79. Duration : 1 h 35 min

  80. Bit rate : 42.4 kb/s

  81. Count of elements : 2273

  82. Stream size : 28.8 MiB (0%)

  83. Language : Spanish

  84. Default : Yes

  85. Forced : No

  86. Text #3

  87. ID : 5

  88. Format : PGS

  89. Muxing mode : zlib

  90. Codec ID : S_HDMV/PGS

  91. Codec ID/Info : Picture based subtitle format used on BDs/HD-DVDs

  92. Duration : 1 h 35 min

  93. Bit rate : 43.6 kb/s

  94. Count of elements : 3054

  95. Stream size : 29.9 MiB (0%)

  96. Title : 简体中字

  97. Language : Chinese

  98. Default : Yes

  99. Forced : No

  100. Text #4

  101. ID : 6

  102. Format : PGS

  103. Muxing mode : zlib

  104. Codec ID : S_HDMV/PGS

  105. Codec ID/Info : Picture based subtitle format used on BDs/HD-DVDs

  106. Duration : 1 h 35 min

  107. Bit rate : 45.0 kb/s

  108. Count of elements : 3054

  109. Stream size : 30.9 MiB (0%)

  110. Title : 繁体中字

  111. Language : Chinese

  112. Default : Yes

  113. Forced : No

  114. Text #5

  115. ID : 7

  116. Format : UTF-8

  117. Codec ID : S_TEXT/UTF8

  118. Codec ID/Info : UTF-8 Plain Text

  119. Duration : 1 h 35 min

  120. Bit rate : 54 b/s

  121. Count of elements : 1527

  122. Stream size : 38.1 KiB (0%)

  123. Title : 简体中字

  124. Language : Chinese

  125. Default : Yes

  126. Forced : No

  127. Text #6

  128. ID : 8

  129. Format : UTF-8

  130. Codec ID : S_TEXT/UTF8

  131. Codec ID/Info : UTF-8 Plain Text

  132. Duration : 1 h 35 min

  133. Bit rate : 54 b/s

  134. Count of elements : 1527

  135. Stream size : 38.1 KiB (0%)

  136. Title : 繁体中字

  137. Language : Chinese

  138. Default : Yes

  139. Forced : No

  140. Menu

  141. 00:00:00.000 : (01)00:00:00:000

  142. 00:07:59.145 : (02)00:07:59:145

  143. 00:16:27.695 : (03)00:16:27:695

  144. 00:24:14.369 : (04)00:24:14:369

  145. 00:31:51.034 : (05)00:31:51:034

  146. 00:39:30.659 : (06)00:39:30:659

  147. 00:48:15.017 : (07)00:48:15:017

  148. 00:56:03.109 : (08)00:56:03:109

  149. 01:04:28.114 : (09)01:04:28:114

  150. 01:10:53.749 : (10)01:10:53:749

  151. 01:18:26.326 : (11)01:18:26:326

  152. 01:27:41.464 : (12)01:27:41:464

  153. 01:41:15.360 : (13)01:41:15:360



文件下载


除非特别注明,本文『职场心计文学梦[中英字幕].My.Salinger.Year.2020.BluRay.1080p.DTS-HD.MA.5.1.x265-OPT 8.35GB』来源于互联网机器人自动抓取,非本站原创。 浮游电影网不对本文拥有版权,如有侵犯,请联系邮箱:fuyouu#yandex.com[#换成@]投诉。我们会在15个工作日内删除。 但烦请转载时请标明出处:“本文转载于『浮游电影网』,原文地址:https://www.fuyouu.com/21253.html

评论吧骚年!

发表你的见解   

昵称*

E-mail*(建议输入,以便收到博主回复的提示邮件)

验证码*

您可以使用eMule或eMule Mod(Windows)、aMule(Win、Linux、Mac)等软件下载eD2k链接。。
eMule收藏集(.emulecollection)文件是您选中的所有链接的列表文件。eMule可以直接下载它们。
按住SHIFT键选择可以选中多个选择框。
可用文件名和大小选择器来选择文件。
文件名选择器帮您根据文件名称或后缀来选择文件。不分大小写。
符号使用:
和:空格( )、+
不包含:-
或:|
转义:一对英文引号("");
匹配开头:^
匹配结尾:$
例如:
选中所有名称中包含有“eMule”或“0.49c”字眼,但不包含有“exe”字眼的:emule|0.49c -exe
选中所有名称的开头是“eMule”,结尾是“0.49c”的:^emule 0.49c$
选中所有名称中带有“eMule 0.49c”的(必须是“eMule 0.49c”,中间没有别的字符,不能是“eMule fake 0.49c”),需要转义:"emule 0.49c"
大小选择器帮您根据文件大小选择文件。