当前位置: 首页 >> 海外电影 >> 东方快车谋杀案[繁英字幕].Murder.On.The.Orient.Express.2017.BluRay.1080p.DTS-HD.MA7.1.x265.10bit-ALT 10.02GB >> 正文

东方快车谋杀案[繁英字幕].Murder.On.The.Orient.Express.2017.BluRay.1080p.DTS-HD.MA7.1.x265.10bit-ALT 10.02GB

2022年04月12日 14:29:14     电影发布:来源于网络     电影分类:海外电影     评论(0)    

东方快车谋杀案[繁英字幕].Murder.On.The.Orient.Express.2017.BluRay.1080p.DTS HD.MA7.1.x265.10bit ALT 10.02GB 悬疑 犯罪 剧情 海外电影  第1张

◎译 名 东方快车谋杀案

◎片 名 Murder on the Orient Express

◎年 代 2017

◎产 地 马耳他 / 美国

◎类 别 剧情 / 悬疑 / 犯罪

◎语 言 英语 / 法语 / 德语 / 阿拉伯语

◎上映日期 2017-11-10(美国/中国大陆) / 2017-11-03(英国)

◎IMDb链接 https://www.imdb.com/title/tt3402236/

◎豆瓣评分 6.8/10 (289412人评价)

◎豆瓣链接 https://movie.douban.com/subject/25790761/

◎片 长 114分钟

◎导 演 肯尼思·布拉纳 Kenneth Branagh (id:1036342)

◎编 剧 迈克尔·格林 Michael Green (id:1339873)

阿加莎·克里斯蒂 Agatha Christie (id:1050010)

◎演 员 肯尼思·布拉纳 Kenneth Branagh (id:1036342)

汤姆·巴特曼 Tom Bateman (id:1328705)

米歇尔·菲佛 Michelle Pfeiffer (id:1035642)

黛西·雷德利 Daisy Ridley (id:1339916)

威廉·达福 Willem Dafoe (id:1010539)

乔什·加德 Josh Gad (id:1305235)

约翰尼·德普 Johnny Depp (id:1054456)

小莱斯利·奥多姆 Leslie Odom Jr. (id:1179291)

佩内洛普·克鲁兹 Penélope Cruz (id:1005774)

朱迪·丹奇 Judi Dench (id:1054384)

德里克·雅各比 Derek Jacobi (id:1027866)

帕帕·厄希度 Paapa Essiedu (id:1372349)

迈克尔·劳斯 Michael Rouse (id:1435412)

艾略特·利维 Elliot Levey (id:1367747)

约瑟夫·朗 Joseph Long (id:1384776)

安迪·阿波罗 Andy Apollo (id:1430037)

哈德利·弗雷泽 Hadley Fraser (id:1249483)

齐亚德·阿巴扎 Ziad Abaza (id:1373467)

米尔托斯·耶罗勒曼 Miltos Yerolemou (id:1434507)

凯瑟琳·怀德 Kathryn Wilder (id:1407263)

杰拉德·霍兰 Gerard Horan (id:1435157)

曼努埃尔·加西亚-鲁尔福 Manuel Garcia-Rulfo (id:1249341)

理查德·克里弗特 Richard Clifford (id:1329032)

谢尔盖·波卢宁 Sergei Polunin (id:1347954)

亚当·加西亚 Adam Garcia (id:1017985)

露西·宝通 Lucy Boynton (id:1310841)

马尔万·肯扎里 Marwan Kenzari (id:1273062)

哈利·莱斯特·史密斯 Harry Lister Smith (id:1192685)

奥利维娅·科尔曼 Olivia Colman (id:1004900)

Chris Porter Chris Porter (id:1128707)

杰克·里德福德 Jack Riddiford (id:1394805)

菲尔·邓斯特 Phil Dunster (id:1357618)

米兰达·莱森 Miranda Raison (id:1148600)

安苏·卡比亚 Ansu Kabia (id:1423233)

托德·博伊斯 Todd Boyce (id:1350567)

拉斯科·阿特金斯 Lasco Atkins (id:1346147)

罗伊·贝克 Roy Beck (id:1373101)

Norman Bowman (id:1220617)

贝恩·科拉科 Bern Colla?o (id:1394212)

耶稣·加洛 Jesús Gallo (id:1402984)

露丝·霍洛克斯 Ruth Horrocks (id:1397361)

拉普洛斯·卡伦福佐斯 Lampros Kalfuntzos (id:1392990)

马里安·洛伦西克 Marian Lorencik (id:1397362)

贾森·马修森 Jason Matthewson (id:1270606)

尼克·欧文福特 Nick Owenford (id:1362807)

阿拉·萨菲 Alaa Safi (id:1232518)

伯纳多·桑托斯 Bernardo Santos (id:1390686)

查尔斯·斯特里特 Charles Streeter (id:1367744)

刘风 Feng Liu (id:1384135)

曹雷 Lei Cao (id:1326251)

王千源 Qianyuan Wang (id:1314827)

俞飞鸿 Faye Yu (id:1014618)

西蒙·金伯格 Simon Kinberg (id:1022982)

马克·戈登 Mark Gordon (id:1027966)

肯尼思·布拉纳 Kenneth Branagh (id:1036342)

迈克尔·舍费尔 Michael Schaefer (id:1355118)

雷德利·斯科特 Ridley Scott (id:1054416)

理查德·罗德尼·本尼特 Richard Rodney Bennett (id:1001160)

帕特里克·道尔 Patrick Doyle (id:1000556)

哈里斯·杰姆巴鲁克斯 Haris Zambarloukos (id:1032845)

亚历山德拉·伯恩 Alexandra Byrne (id:1279783)

◎简 介

影片改编自阿加莎·克里斯蒂原著小说《东方快车谋杀案》,讲述大侦探波洛(肯尼思·布拉纳 Kenneth Branagh 饰)在东方快车上巧破一桩谋杀奇案的故事。波洛乘上东方快车,夜间三次被吵醒,第二天清晨便发现同车的美国富商雷切特(约翰尼·德普 Johnny Depp 饰)被人谋杀,死者被戳了12刀。波洛根据他所观察到的各种可疑迹象以及同车人士的讯问,并结合美国实行的12人陪审团制度等情况进行逻辑推理,成功地揭开了一起“集体复仇”奇案。

◎获奖情况 (共5项)

第22届美国艺术指导工会奖 (2018)

电影奖 最佳历史电影艺术指导(提名)

第20届美国服装设计工会奖 (2018)

年代电影最佳服装设计(提名)

└──亚历山德拉·伯恩 (id:1279783)

第23届美国评论家选择电影奖 (2018)

最佳美术指导(提名)

第22届金卫星奖 (2018)

电影部门 最佳服装设计(提名)

└──亚历山德拉·伯恩 (id:1279783)

第4届豆瓣电影年度榜单 (2017)

11月最受关注电影(提名)

  1. ##### MediaInfo ######

  2. General

  3. Unique ID : 206866893533301575581334444484437177588 (0x9BA11D4E497A5B57CDB3F7B1184B74F4)

  4. Complete name : Murder.On.The.Orient.Express.2017.BluRay.1080p.DTS-HD.MA7.1.x265.10bit-BeiTai.mkv

  5. Format : Matroska

  6. Format version : Version 4

  7. File size : 10.0 GiB

  8. Duration : 1 h 53 min

  9. Overall bit rate mode : Variable

  10. Overall bit rate : 12.6 Mb/s

  11. Encoded date : UTC 2022-04-10 12:55:24

  12. Writing application : mkvmerge v49.0.0 ('Sick Of Losing Soulmates') 64-bit

  13. Writing library : libebml v1.4.0 + libmatroska v1.6.1

  14. Video

  15. ID : 1

  16. Format : HEVC

  17. Format/Info : High Efficiency Video Coding

  18. Format profile : Main [email protected]@High

  19. Codec ID : V_MPEGH/ISO/HEVC

  20. Duration : 1 h 53 min

  21. Bit rate : 8 106 kb/s

  22. Width : 1 920 pixels

  23. Height : 802 pixels

  24. Display aspect ratio : 2.40:1

  25. Frame rate mode : Constant

  26. Frame rate : 23.976 (24000/1001/53354) FPS

  27. Color space : YUV

  28. Chroma subsampling : 4:2:0

  29. Bit depth : 10 bits

  30. Bits/(Pixel*Frame) : 0.220

  31. Stream size : 6.45 GiB (64%)

  32. Title : HEVC, [email protected]@High, 24/1.001 fps @ 8105 kbps

  33. Writing library : x265 3.5+36-1f2c8da77:[Windows][GCC 11.2.0][64 bit] 10bit

  34. Encoding settings : cpuid=533541111039 / frame-threads=4 / numa-pools=16 / wpp / pmode / pme / no-psnr / no-ssim / log-level=2 / input-csp=1 / input-res=1920x802 / interlace=0 / total-frames=163899 / level-idc=51 / high-tier=1 / uhd-bd=0 / ref=5 / no-allow-non-conformance / no-repeat-headers / annexb / no-aud / no-eob / no-eos / no-hrd / info / hash=0 / no-temporal-layers / open-gop / min-keyint=24 / keyint=240 / gop-lookahead=0 / bframes=6 / b-adapt=2 / b-pyramid / bframe-bias=0 / rc-lookahead=40 / lookahead-slices=0 / NTMzNTQ=uuDQuD2mJt9fsCf / scenecut=40 / no-hist-scenecut / radl=0 / no-splice / no-intra-refresh / ctu=32 / min-cu-size=8 / no-rect / no-amp / max-tu-size=32 / tu-inter-depth=3 / tu-intra-depth=3 / limit-tu=4 / rdoq-level=2 / dynamic-rd=0.00 / no-ssim-rd / signhide / no-tskip / nr-intra=0 / nr-inter=0 / no-constrained-intra / no-strong-intra-smoothing / max-merge=4 / limit-refs=1 / limit-modes / me=3 / subme=4 / merange=25 / temporal-mvp / no-frame-dup / no-hme / weightp / weightb / no-analyze-src-pics / deblock=-3:-3 / no-sao / no-sao-non-deblock / rd=6 / selective-sao=0 / no-early-skip / rskip / no-fast-intra / no-tskip-fast / no-cu-lossless / b-intra / no-splitrd-skip / rdpenalty=0 / psy-rd=2.00 / psy-rdoq=1.00 / no-rd-refine / no-lossless / cbqpoffs=0 / crqpoffs=0 / rc=crf / crf=17.0 / qcomp=0.65 / qpstep=4 / stats-write=0 / stats-read=0 / vbv-maxrate=80000 / vbv-bufsize=80000 / vbv-init=0.9 / min-vbv-fullness=50.0 / max-vbv-fullness=80.0 / crf-max=0.0 / crf-min=0.0 / ipratio=1.40 / pbratio=1.30 / aq-mode=2 / aq-strength=0.85 / cutree / zone-count=0 / no-strict-cbr / qg-size=32 / no-rc-grain / qpmax=69 / qpmin=0 / no-const-vbv / sar=1 / overscan=0 / videoformat=5 / range=0 / colorprim=1 / transfer=1 / colormatrix=1 / chromaloc=0 / display-window=0 / cll=0,0 / min-luma=0 / max-luma=1023 / log2-max-poc-lsb=8 / vui-timing-info / vui-hrd-info / slices=1 / no-opt-qp-pps / no-opt-ref-list-length-pps / no-multi-pass-opt-rps / scenecut-bias=0.05 / hist-threshold=0.03 / no-opt-cu-delta-qp / no-aq-motion / no-hdr10 / no-hdr10-opt / no-dhdr10-opt / no-idr-recovery-sei / analysis-reuse-level=0 / analysis-save-reuse-level=0 / analysis-load-reuse-level=0 / scale-factor=0 / refine-intra=0 / refine-inter=0 / refine-mv=1 / refine-ctu-distortion=0 / no-limit-sao / ctu-info=0 / no-lowpass-dct / refine-analysis-type=0 / copy-pic=1 / max-ausize-factor=1.0 / no-dynamic-refine / no-single-sei / no-hevc-aq / no-svt / no-field / qp-adaptation-range=1.00 / scenecut-aware-qp=0conformance-window-offsets / right=0 / bottom=0 / NTMzNTQ= / decoder-max-rate=0 / no-vbv-live-multi-pass

  35. Language : English

  36. Default : Yes

  37. Forced : No

  38. Color range : Limited

  39. Color primaries : BT.709

  40. Transfer characteristics : BT.709

  41. Matrix coefficients : BT.709

  42. Audio #1

  43. ID : 2

  44. Format : DTS ES XLL

  45. Format/Info : Digital Theater Systems

  46. Commercial name : DTS-HD Master Audio

  47. Codec ID : A_DTS

  48. Duration : 1 h 53 min

  49. Bit rate mode : Variable

  50. Bit rate : 4 061 kb/s

  51. Channel(s) : 8 channels

  52. Channel layout : C L R Ls Rs LFE Lb Rb

  53. Sampling rate : 48.0 kHz

  54. Frame rate : 93.750 FPS (512 SPF)

  55. Bit depth : 24 bits

  56. Compression mode : Lossless

  57. Stream size : 3.23 GiB (32%)

  58. Title : English DTS-HD Master Audio 7.1 @ 4061 kbps

  59. Language : English

  60. Default : Yes

  61. Forced : No

  62. Audio #2

  63. ID : 3

  64. Format : AC-3

  65. Format/Info : Audio Coding 3

  66. Commercial name : Dolby Digital

  67. Codec ID : A_AC3

  68. Duration : 1 h 53 min

  69. Bit rate mode : Constant

  70. Bit rate : 224 kb/s

  71. Channel(s) : 2 channels

  72. Channel layout : L R

  73. Sampling rate : 48.0 kHz

  74. Frame rate : 31.250 FPS (1536 SPF)

  75. Compression mode : Lossy

  76. Stream size : 183 MiB (2%)

  77. Title : English Dolby Digital Audio 2.0 @ 224?kbps Commentary

  78. Language : English

  79. Service kind : Complete Main

  80. Default : No

  81. Forced : No

  82. Text #1

  83. ID : 4

  84. Format : PGS

  85. Codec ID : S_HDMV/PGS

  86. Codec ID/Info : Picture based subtitle format used on BDs/HD-DVDs

  87. Duration : 1 h 45 min

  88. Bit rate : 51.1 kb/s

  89. Count of elements : 3958

  90. Stream size : 38.7 MiB (0%)

  91. Title : Eng/SUP

  92. Language : English

  93. Default : No

  94. Forced : No

  95. Text #2

  96. ID : 5

  97. Format : PGS

  98. Codec ID : S_HDMV/PGS

  99. Codec ID/Info : Picture based subtitle format used on BDs/HD-DVDs

  100. Duration : 1 h 53 min

  101. Bit rate : 30.3 kb/s

  102. Count of elements : 3218

  103. Stream size : 24.5 MiB (0%)

  104. Title : Cht/SUP 原盘繁体(HK)

  105. Language : Chinese

  106. Default : No

  107. Forced : No

  108. Text #3

  109. ID : 6

  110. Format : PGS

  111. Codec ID : S_HDMV/PGS

  112. Codec ID/Info : Picture based subtitle format used on BDs/HD-DVDs

  113. Duration : 1 h 52 min

  114. Bit rate : 28.7 kb/s

  115. Count of elements : 3148

  116. Stream size : 23.2 MiB (0%)

  117. Title : Cht/SUP 原盘繁体(TW)

  118. Language : Chinese

  119. Default : Yes

  120. Forced : No

  121. Text #4

  122. ID : 7

  123. Format : PGS

  124. Codec ID : S_HDMV/PGS

  125. Codec ID/Info : Picture based subtitle format used on BDs/HD-DVDs

  126. Duration : 1 h 53 min

  127. Bit rate : 88.7 kb/s

  128. Count of elements : 4583

  129. Stream size : 72.2 MiB (1%)

  130. Title : Eng/SUP Commentary

  131. Language : English

  132. Default : No

  133. Forced : No

  134. Menu

  135. 00:00:00.000 : en:第 01 章

  136. 00:03:06.144 : en:第 02 章

  137. 00:06:42.193 : en:第 03 章

  138. 00:11:44.746 : en:第 04 章

  139. 00:18:26.188 : en:第 05 章

  140. 00:24:53.659 : en:第 06 章

  141. 00:33:14.159 : en:第 07 章

  142. 00:37:47.515 : en:第 08 章

  143. 00:43:16.511 : en:第 09 章

  144. 00:46:24.865 : en:第 10 章

  145. 00:51:23.580 : en:第 11 章

  146. 00:55:52.015 : en:第 12 章

  147. 01:00:03.183 : en:第 13 章

  148. 01:05:39.227 : en:第 14 章

  149. 01:10:40.153 : en:第 15 章

  150. 01:14:17.578 : en:第 16 章

  151. 01:18:05.055 : en:第 17 章

  152. 01:21:12.284 : en:第 18 章

  153. 01:24:39.366 : en:第 19 章

  154. 01:28:37.854 : en:第 20 章

  155. 01:32:28.376 : en:第 21 章

  156. 01:37:04.652 : en:第 22 章

  157. 01:40:30.024 : en:第 23 章

  158. 01:46:49.903 : en:第 24 章


复制代码



文件下载


除非特别注明,本文『东方快车谋杀案[繁英字幕].Murder.On.The.Orient.Express.2017.BluRay.1080p.DTS-HD.MA7.1.x265.10bit-ALT 10.02GB』来源于互联网机器人自动抓取,非本站原创。 浮游电影网不对本文拥有版权,如有侵犯,请联系邮箱:fuyouu#yandex.com[#换成@]投诉。我们会在15个工作日内删除。 但烦请转载时请标明出处:“本文转载于『浮游电影网』,原文地址:https://www.fuyouu.com/21252.html

评论吧骚年!

发表你的见解   

昵称*

E-mail*(建议输入,以便收到博主回复的提示邮件)

验证码*

您可以使用eMule或eMule Mod(Windows)、aMule(Win、Linux、Mac)等软件下载eD2k链接。。
eMule收藏集(.emulecollection)文件是您选中的所有链接的列表文件。eMule可以直接下载它们。
按住SHIFT键选择可以选中多个选择框。
可用文件名和大小选择器来选择文件。
文件名选择器帮您根据文件名称或后缀来选择文件。不分大小写。
符号使用:
和:空格( )、+
不包含:-
或:|
转义:一对英文引号("");
匹配开头:^
匹配结尾:$
例如:
选中所有名称中包含有“eMule”或“0.49c”字眼,但不包含有“exe”字眼的:emule|0.49c -exe
选中所有名称的开头是“eMule”,结尾是“0.49c”的:^emule 0.49c$
选中所有名称中带有“eMule 0.49c”的(必须是“eMule 0.49c”,中间没有别的字符,不能是“eMule fake 0.49c”),需要转义:"emule 0.49c"
大小选择器帮您根据文件大小选择文件。