当前位置: 首页 >> 欧美电影 >> 战场上的快乐圣诞[简繁英字幕].Merry.Christmas.Mr.Lawrence.1983.BluRay.1080p.TrueHD.5.1.x265.10bit-ALT 14.46GB >> 正文

战场上的快乐圣诞[简繁英字幕].Merry.Christmas.Mr.Lawrence.1983.BluRay.1080p.TrueHD.5.1.x265.10bit-ALT 14.46GB

2022年04月12日 14:27:57     电影发布:来源于网络     电影分类:欧美电影     评论(0)    

战场上的快乐圣诞[简繁英字幕].Merry.Christmas.Mr.Lawrence.1983.BluRay.1080p.TrueHD.5.1.x265.10bit ALT 14.46GB 同性 战争 剧情 欧美电影  第1张

◎译 名 战场上的快乐圣诞 / 俘虏(台) / 圣诞快乐,劳伦斯先生 / Merry Christmas, Mr. Lawrence / 戦場のメリークリスマス

◎片 名 Merry Christmas Mr. Lawrence

◎年 代 1983

◎产 地 英国 / 日本 / 新西兰

◎类 别 剧情 / 同性 / 战争

◎语 言 英语 / 日语

◎上映日期 1983-05-11(戛纳电影节) / 1983-05-28(日本) / 1983-08-25(英国)

◎IMDb链接 https://www.imdb.com/title/tt0085933/

◎豆瓣评分 8.8/10 (101350人评价)

◎豆瓣链接 https://movie.douban.com/subject/1303535/

◎片 长 123分钟

◎导 演 大岛渚 Nagisa ?shima (id:1128697)

◎编 剧 劳伦斯·凡·德·普司特 Laurens Van der Post (id:1038424)

大岛渚 Nagisa ?shima (id:1128697)

保罗·梅尔斯贝格 Paul Mayersberg (id:1019482)

◎演 员 大卫·鲍伊 David Bowie (id:1013850)

汤姆·康蒂 Tom Conti (id:1041267)

坂本龙一 Ryuichi Sakamoto (id:1148641)

北野武 Takeshi Kitano (id:1054423)

杰克·汤普森 Jack Thompson (id:1152253)

约翰尼·大仓 Johnny Okura (id:1287905)

阿利斯泰尔·布朗宁 Alistair Browning (id:1279475)

詹姆斯·马尔科姆 James Malcolm (id:1388444)

克里斯·布龙 Chris Broun (id:1388445)

内田裕也 Y?ya Uchida (id:1042163)

金田龙之介 Ryunosuke Kaneda (id:1021294)

内藤刚志 Takashi Nait? (id:1020440)

石仓民夫 Tamio Ishikura (id:1388446)

户浦六宏 Rokko Toura (id:1046965)

三上宽 Kan Mikami (id:1035704)

本间裕二 Y?ji Honma (id:1286874)

饭岛大介 Daisuke Iijima (id:1389348)

三上博史 Hiroshi Mikami (id:1025614)

增田有宏 Masuda Arihiro (id:1404545)

兼子二郎 Beat Kiyoshi (id:1426736)

冈田正典 Masanori Okada (id:1447773)

杰瑞米·托马斯 Jeremy Thomas (id:1023186)

坂本龙一 Ryuichi Sakamoto (id:1148641)

成岛东一郎 Toichiro Narushima (id:1292920)

◎简 介

1942年,第二次世界大战如火如荼,此时的日本在亚洲各战场所向披靡,无往不利。在南洋爪哇岛的热带丛林中,一所日军战俘看守所伫立于此,陆军大尉世野井(坂本龙一 饰)和大原上士(北野武 饰)共同管理看守所。大原作风粗鲁,冷酷无情,他对待欧美战俘从来不留情面,而对于那些有同性恋倾向的人更残酷至极。相比之下,相貌俊美的世野则显得绅士许多。英国陆军少佐杰克(David Bowie 饰)潇洒俊朗。他的第一次出现便让世野心有所动。同性之风盛行的战俘营中,几多情感不能自已。在接下来的日子里,两个人徘徊在家国恩怨和个人情感之间,彼此心中进行着辛苦而残酷的角力……

本片根据英国人劳伦斯·包斯特的小说改编,并荣获1984年电影旬报观众选择奖最佳影片,1984年每日电影最佳导演、最佳影片、最佳配乐、最佳剧本以及最佳男配角(北野武)等5个奖项。

◎获奖情况 (共1项)

第36届戛纳电影节 (1983)

主竞赛单元 金棕榈奖(提名)

└──大岛渚 (id:1128697)

  1. ##### MediaInfo ######

  2. General

  3. Unique ID : 129476533660861095769072220032133242841 (0x616845F8C701C9BAC502806FDEBC1FD9)

  4. Complete name : Merry.Christmas.Mr.Lawrence.1983.BluRay.1080p.TrueHD.5.1.x265.10bit-BeiTai.mkv

  5. Format : Matroska

  6. Format version : Version 4

  7. File size : 14.5 GiB

  8. Duration : 2 h 3 min

  9. Overall bit rate mode : Variable

  10. Overall bit rate : 16.8 Mb/s

  11. Encoded date : UTC 2022-04-10 11:26:46

  12. Writing application : mkvmerge v49.0.0 ('Sick Of Losing Soulmates') 64-bit

  13. Writing library : libebml v1.4.0 + libmatroska v1.6.1

  14. Video

  15. ID : 1

  16. Format : HEVC

  17. Format/Info : High Efficiency Video Coding

  18. Format profile : Main [email protected]@High

  19. Codec ID : V_MPEGH/ISO/HEVC

  20. Duration : 2 h 3 min

  21. Bit rate : 13.2 Mb/s

  22. Width : 1 920 pixels

  23. Height : 1 038 pixels

  24. Display aspect ratio : 1.85:1

  25. Frame rate mode : Constant

  26. Frame rate : 23.976 (24000/1001/53354) FPS

  27. Color space : YUV

  28. Chroma subsampling : 4:2:0

  29. Bit depth : 10 bits

  30. Bits/(Pixel*Frame) : 0.277

  31. Stream size : 11.4 GiB (79%)

  32. Title : HEVC, [email protected]@High, 24/1.001 fps @ 13233 kbps

  33. Writing library : x265 3.5+36-1f2c8da77:[Windows][GCC 11.2.0][64 bit] 10bit

  34. Encoding settings : cpuid=533541111039 / frame-threads=4 / numa-pools=16 / wpp / pmode / pme / no-psnr / no-ssim / log-level=2 / input-csp=1 / input-res=1920x1038 / interlace=0 / total-frames=177128 / level-idc=51 / high-tier=1 / uhd-bd=0 / ref=5 / no-allow-non-conformance / no-repeat-headers / annexb / no-aud / no-eob / no-eos / no-hrd / info / hash=0 / no-temporal-layers / open-gop / min-keyint=24 / keyint=240 / gop-lookahead=0 / bframes=6 / b-adapt=2 / b-pyramid / bframe-bias=0 / rc-lookahead=40 / lookahead-slices=0 / NTMzNTQ=uuDQuD2mJt9fsCf / scenecut=40 / no-hist-scenecut / radl=0 / no-splice / no-intra-refresh / ctu=32 / min-cu-size=8 / no-rect / no-amp / max-tu-size=32 / tu-inter-depth=3 / tu-intra-depth=3 / limit-tu=4 / rdoq-level=2 / dynamic-rd=0.00 / no-ssim-rd / signhide / no-tskip / nr-intra=0 / nr-inter=0 / no-constrained-intra / no-strong-intra-smoothing / max-merge=4 / limit-refs=1 / limit-modes / me=3 / subme=4 / merange=25 / temporal-mvp / no-frame-dup / no-hme / weightp / weightb / no-analyze-src-pics / deblock=-3:-3 / no-sao / no-sao-non-deblock / rd=6 / selective-sao=0 / no-early-skip / rskip / no-fast-intra / no-tskip-fast / no-cu-lossless / b-intra / no-splitrd-skip / rdpenalty=0 / psy-rd=2.00 / psy-rdoq=1.00 / no-rd-refine / no-lossless / cbqpoffs=0 / crqpoffs=0 / rc=crf / crf=21.5 / qcomp=0.65 / qpstep=4 / stats-write=0 / stats-read=0 / vbv-maxrate=80000 / vbv-bufsize=80000 / vbv-init=0.9 / min-vbv-fullness=50.0 / max-vbv-fullness=80.0 / crf-max=0.0 / crf-min=0.0 / ipratio=1.40 / pbratio=1.30 / aq-mode=2 / aq-strength=0.85 / cutree / zone-count=0 / no-strict-cbr / qg-size=32 / no-rc-grain / qpmax=69 / qpmin=0 / no-const-vbv / sar=1 / overscan=0 / videoformat=5 / range=0 / colorprim=1 / transfer=1 / colormatrix=1 / chromaloc=0 / display-window=0 / cll=0,0 / min-luma=0 / max-luma=1023 / log2-max-poc-lsb=8 / vui-timing-info / vui-hrd-info / slices=1 / no-opt-qp-pps / no-opt-ref-list-length-pps / no-multi-pass-opt-rps / scenecut-bias=0.05 / hist-threshold=0.03 / no-opt-cu-delta-qp / no-aq-motion / no-hdr10 / no-hdr10-opt / no-dhdr10-opt / no-idr-recovery-sei / analysis-reuse-level=0 / analysis-save-reuse-level=0 / analysis-load-reuse-level=0 / scale-factor=0 / refine-intra=0 / refine-inter=0 / refine-mv=1 / refine-ctu-distortion=0 / no-limit-sao / ctu-info=0 / no-lowpass-dct / refine-analysis-type=0 / copy-pic=1 / max-ausize-factor=1.0 / no-dynamic-refine / no-single-sei / no-hevc-aq / no-svt / no-field / qp-adaptation-range=1.00 / scenecut-aware-qp=0conformance-window-offsets / right=0 / bottom=0 / NTMzNTQ= / decoder-max-rate=0 / no-vbv-live-multi-pass

  35. Language : English

  36. Default : Yes

  37. Forced : No

  38. Color range : Limited

  39. Color primaries : BT.709

  40. Transfer characteristics : BT.709

  41. Matrix coefficients : BT.709

  42. Audio

  43. ID : 2

  44. Format : DTS XLL

  45. Format/Info : Digital Theater Systems

  46. Commercial name : DTS-HD Master Audio

  47. Codec ID : A_DTS

  48. Duration : 2 h 3 min

  49. Bit rate mode : Variable

  50. Bit rate : 3 493 kb/s

  51. Channel(s) : 6 channels

  52. Channel layout : C L R Ls Rs LFE

  53. Sampling rate : 48.0 kHz

  54. Frame rate : 93.750 FPS (512 SPF)

  55. Bit depth : 24 bits

  56. Compression mode : Lossless

  57. Stream size : 3.00 GiB (21%)

  58. Title : English DTS-HD Master Audio 5.1 @ 3493 kbps

  59. Language : English

  60. Default : Yes

  61. Forced : No

  62. Text #1

  63. ID : 3

  64. Format : PGS

  65. Codec ID : S_HDMV/PGS

  66. Codec ID/Info : Picture based subtitle format used on BDs/HD-DVDs

  67. Duration : 1 h 59 min

  68. Bit rate : 28.9 kb/s

  69. Count of elements : 2468

  70. Stream size : 24.6 MiB (0%)

  71. Title : Eng/SUP SDH

  72. Language : English

  73. Default : No

  74. Forced : No

  75. Text #2

  76. ID : 4

  77. Format : PGS

  78. Codec ID : S_HDMV/PGS

  79. Codec ID/Info : Picture based subtitle format used on BDs/HD-DVDs

  80. Duration : 1 h 41 min

  81. Bit rate : 8 366 b/s

  82. Count of elements : 694

  83. Stream size : 6.07 MiB (0%)

  84. Title : Eng/SUP

  85. Language : English

  86. Default : No

  87. Forced : No

  88. Text #3

  89. ID : 5

  90. Format : PGS

  91. Codec ID : S_HDMV/PGS

  92. Codec ID/Info : Picture based subtitle format used on BDs/HD-DVDs

  93. Duration : 1 h 59 min

  94. Bit rate : 22.1 kb/s

  95. Count of elements : 2024

  96. Stream size : 18.9 MiB (0%)

  97. Title : Chs/SUP 简体

  98. Language : Chinese

  99. Default : Yes

  100. Forced : No

  101. Text #4

  102. ID : 6

  103. Format : PGS

  104. Codec ID : S_HDMV/PGS

  105. Codec ID/Info : Picture based subtitle format used on BDs/HD-DVDs

  106. Duration : 1 h 59 min

  107. Bit rate : 23.0 kb/s

  108. Count of elements : 2024

  109. Stream size : 19.7 MiB (0%)

  110. Title : Cht/SUP 繁体

  111. Language : Chinese

  112. Default : No

  113. Forced : No

  114. Menu

  115. 00:00:00.000 : en:第 01 章

  116. 00:08:30.677 : en:第 02 章

  117. 00:18:34.822 : en:第 03 章

  118. 00:30:47.763 : en:第 04 章

  119. 00:41:17.266 : en:第 05 章

  120. 00:49:04.191 : en:第 06 章

  121. 00:58:30.006 : en:第 07 章

  122. 01:04:13.224 : en:第 08 章

  123. 01:15:51.630 : en:第 09 章

  124. 01:28:58.041 : en:第 10 章

  125. 01:43:55.938 : en:第 11 章

  126. 01:53:38.645 : en:第 12 章


复制代码



文件下载


除非特别注明,本文『战场上的快乐圣诞[简繁英字幕].Merry.Christmas.Mr.Lawrence.1983.BluRay.1080p.TrueHD.5.1.x265.10bit-ALT 14.46GB』来源于互联网机器人自动抓取,非本站原创。 浮游电影网不对本文拥有版权,如有侵犯,请联系邮箱:fuyouu#yandex.com[#换成@]投诉。我们会在15个工作日内删除。 但烦请转载时请标明出处:“本文转载于『浮游电影网』,原文地址:https://www.fuyouu.com/21251.html

评论吧骚年!

发表你的见解   

昵称*

E-mail*(建议输入,以便收到博主回复的提示邮件)

验证码*

您可以使用eMule或eMule Mod(Windows)、aMule(Win、Linux、Mac)等软件下载eD2k链接。。
eMule收藏集(.emulecollection)文件是您选中的所有链接的列表文件。eMule可以直接下载它们。
按住SHIFT键选择可以选中多个选择框。
可用文件名和大小选择器来选择文件。
文件名选择器帮您根据文件名称或后缀来选择文件。不分大小写。
符号使用:
和:空格( )、+
不包含:-
或:|
转义:一对英文引号("");
匹配开头:^
匹配结尾:$
例如:
选中所有名称中包含有“eMule”或“0.49c”字眼,但不包含有“exe”字眼的:emule|0.49c -exe
选中所有名称的开头是“eMule”,结尾是“0.49c”的:^emule 0.49c$
选中所有名称中带有“eMule 0.49c”的(必须是“eMule 0.49c”,中间没有别的字符,不能是“eMule fake 0.49c”),需要转义:"emule 0.49c"
大小选择器帮您根据文件大小选择文件。