当前位置: 首页 >> 海外电影 >> 妈妈[繁英字幕].Mama.2013.BluRay.1080p.DTS-HD.MA5.1.x265.10bit-ALT 6.76GB >> 正文

妈妈[繁英字幕].Mama.2013.BluRay.1080p.DTS-HD.MA5.1.x265.10bit-ALT 6.76GB

2022年04月12日 14:26:59     电影发布:来源于网络     电影分类:海外电影     评论(0)    

妈妈[繁英字幕].Mama.2013.BluRay.1080p.DTS HD.MA5.1.x265.10bit ALT 6.76GB 恐怖 海外电影  第1张

◎译 名 妈妈 / 母侵(台) / 尸人保姆(港) / 鬼妈

◎片 名 Mama

◎年 代 2013

◎产 地 西班牙 / 加拿大

◎类 别 恐怖

◎语 言 英语

◎上映日期 2013-01-18(美国)

◎IMDb链接 https://www.imdb.com/title/tt2023587/

◎豆瓣评分 6.8/10 (36032人评价)

◎豆瓣链接 https://movie.douban.com/subject/6837235/

◎片 长 100分钟

◎导 演 安德斯·穆斯切蒂 Andrés Muschietti (id:1326370)

◎编 剧 尼尔·克洛斯 Neil Cross (id:1326371)

安德斯·穆斯切蒂 Andrés Muschietti (id:1326370)

芭芭拉·穆斯什蒂 Barbara Muschietti (id:1326372)

◎演 员 杰西卡·查斯坦 Jessica Chastain (id:1000225)

尼古拉·科斯特-瓦尔道 Nikolaj Coster-Waldau (id:1076051)

梅根·查彭提尔 Megan Charpentier (id:1326373)

伊莎贝尔·内利瑟 Isabelle Nélisse (id:1326374)

丹尼尔·卡什 Daniel Kash (id:1108474)

哈维尔·博泰特 Javier Botet (id:1247131)

玛丽娜·马修斯 Melina Matthews (id:1335224)

吉尔莫·德尔·托罗 Guillermo del Toro (id:1027182)

费尔南多·贝拉斯克斯 Fernando Velázquez (id:1305632)

路易斯·塞凯拉 Luis Sequeira (id:1387576)

◎简 介

一对女孩维多利亚·迪桑(梅根·查彭提尔 Megan Charpentier饰)和莉莉·迪桑(伊莎贝尔·内利瑟 Isabelle Nélisse饰)的母亲被他们的父亲所杀,父亲也随即自杀并将两个女儿遗弃在树林里。五年后,她们被发现时状况极差,孤独、饥饿,她们对一切的肢体接触都会感到恐惧和抗拒,没人知道她们是如何在如此孤独的环境中存活的。叔叔卢卡斯(尼可拉·科斯特-瓦尔道 Nikolaj Coster-Waldau饰)和女友安娜贝尔(杰西卡·查斯坦 Jessica Chastain饰)收养了她们,原本平静的生活就此打破。黑暗中,总有一个如影随形的亡魂,而这个想要置他们于死地的鬼魂,两个女孩叫她:妈妈。

本部影片是西班牙导演安德斯·穆斯切蒂的长片处女作,翻拍自他2008年拍摄的同名短片

◎获奖情况 (共4项)

第34届加拿大吉尼奖 (2014)

最佳摄影(提名)

└──安东尼奥·列斯特拉 (id:1334110)

最佳视觉效果(提名)

最佳化妆(提名)

第23届MTV电影奖 (2014)

MTV电影奖 最佳惊恐戏表演(提名)

└──杰西卡·查斯坦 (id:1000225)

  1. ##### MediaInfo ######

  2. General

  3. Unique ID : 31682887479808135818825191180926098901 (0x17D5E6F4C1E458539515FA990ECA9DD5)

  4. Complete name : Mama.2013.BluRay.1080p.DTS-HD.MA5.1.x265.10bit-BeiTai.mkv

  5. Format : Matroska

  6. Format version : Version 4

  7. File size : 6.76 GiB

  8. Duration : 1 h 40 min

  9. Overall bit rate mode : Variable

  10. Overall bit rate : 9 671 kb/s

  11. Encoded date : UTC 2022-04-10 11:08:11

  12. Writing application : mkvmerge v49.0.0 ('Sick Of Losing Soulmates') 64-bit

  13. Writing library : libebml v1.4.0 + libmatroska v1.6.1

  14. Video

  15. ID : 1

  16. Format : HEVC

  17. Format/Info : High Efficiency Video Coding

  18. Format profile : Main [email protected]@High

  19. Codec ID : V_MPEGH/ISO/HEVC

  20. Duration : 1 h 40 min

  21. Bit rate : 5 695 kb/s

  22. Width : 1 920 pixels

  23. Height : 1 040 pixels

  24. Display aspect ratio : 1.85:1

  25. Frame rate mode : Constant

  26. Frame rate : 23.976 (24000/1001/53354) FPS

  27. Color space : YUV

  28. Chroma subsampling : 4:2:0

  29. Bit depth : 10 bits

  30. Bits/(Pixel*Frame) : 0.119

  31. Stream size : 3.98 GiB (59%)

  32. Title : HEVC, [email protected]@High, 24/1.001 fps @ 5694 kbps

  33. Writing library : x265 3.5+36-1f2c8da77:[Windows][GCC 11.2.0][64 bit] 10bit

  34. Encoding settings : cpuid=533541111039 / frame-threads=4 / numa-pools=16 / wpp / pmode / pme / no-psnr / no-ssim / log-level=2 / input-csp=1 / input-res=1920x1040 / interlace=0 / total-frames=144007 / level-idc=51 / high-tier=1 / uhd-bd=0 / ref=5 / no-allow-non-conformance / no-repeat-headers / annexb / no-aud / no-eob / no-eos / no-hrd / info / hash=0 / no-temporal-layers / open-gop / min-keyint=24 / keyint=240 / gop-lookahead=0 / bframes=6 / b-adapt=2 / b-pyramid / bframe-bias=0 / rc-lookahead=40 / lookahead-slices=0 / NTMzNTQ=uuDQuD2mJt9fsCf / scenecut=40 / no-hist-scenecut / radl=0 / no-splice / no-intra-refresh / ctu=32 / min-cu-size=8 / no-rect / no-amp / max-tu-size=32 / tu-inter-depth=3 / tu-intra-depth=3 / limit-tu=4 / rdoq-level=2 / dynamic-rd=0.00 / no-ssim-rd / signhide / no-tskip / nr-intra=0 / nr-inter=0 / no-constrained-intra / no-strong-intra-smoothing / max-merge=4 / limit-refs=1 / limit-modes / me=3 / subme=4 / merange=25 / temporal-mvp / no-frame-dup / no-hme / weightp / weightb / no-analyze-src-pics / deblock=-3:-3 / no-sao / no-sao-non-deblock / rd=6 / selective-sao=0 / no-early-skip / rskip / no-fast-intra / no-tskip-fast / no-cu-lossless / b-intra / no-splitrd-skip / rdpenalty=0 / psy-rd=2.00 / psy-rdoq=1.00 / no-rd-refine / no-lossless / cbqpoffs=0 / crqpoffs=0 / rc=crf / crf=17.0 / qcomp=0.65 / qpstep=4 / stats-write=0 / stats-read=0 / vbv-maxrate=80000 / vbv-bufsize=80000 / vbv-init=0.9 / min-vbv-fullness=50.0 / max-vbv-fullness=80.0 / crf-max=0.0 / crf-min=0.0 / ipratio=1.40 / pbratio=1.30 / aq-mode=2 / aq-strength=0.85 / cutree / zone-count=0 / no-strict-cbr / qg-size=32 / no-rc-grain / qpmax=69 / qpmin=0 / no-const-vbv / sar=1 / overscan=0 / videoformat=5 / range=0 / colorprim=1 / transfer=1 / colormatrix=1 / chromaloc=0 / display-window=0 / cll=0,0 / min-luma=0 / max-luma=1023 / log2-max-poc-lsb=8 / vui-timing-info / vui-hrd-info / slices=1 / no-opt-qp-pps / no-opt-ref-list-length-pps / no-multi-pass-opt-rps / scenecut-bias=0.05 / hist-threshold=0.03 / no-opt-cu-delta-qp / no-aq-motion / no-hdr10 / no-hdr10-opt / no-dhdr10-opt / no-idr-recovery-sei / analysis-reuse-level=0 / analysis-save-reuse-level=0 / analysis-load-reuse-level=0 / scale-factor=0 / refine-intra=0 / refine-inter=0 / refine-mv=1 / refine-ctu-distortion=0 / no-limit-sao / ctu-info=0 / no-lowpass-dct / refine-analysis-type=0 / copy-pic=1 / max-ausize-factor=1.0 / no-dynamic-refine / no-single-sei / no-hevc-aq / no-svt / no-field / qp-adaptation-range=1.00 / scenecut-aware-qp=0conformance-window-offsets / right=0 / bottom=0 / NTMzNTQ= / decoder-max-rate=0 / no-vbv-live-multi-pass

  35. Language : English

  36. Default : Yes

  37. Forced : No

  38. Color range : Limited

  39. Color primaries : BT.709

  40. Transfer characteristics : BT.709

  41. Matrix coefficients : BT.709

  42. Audio #1

  43. ID : 2

  44. Format : DTS XLL

  45. Format/Info : Digital Theater Systems

  46. Commercial name : DTS-HD Master Audio

  47. Codec ID : A_DTS

  48. Duration : 1 h 40 min

  49. Bit rate mode : Variable

  50. Bit rate : 3 693 kb/s

  51. Channel(s) : 6 channels

  52. Channel layout : C L R Ls Rs LFE

  53. Sampling rate : 48.0 kHz

  54. Frame rate : 93.750 FPS (512 SPF)

  55. Bit depth : 24 bits

  56. Compression mode : Lossless

  57. Stream size : 2.58 GiB (38%)

  58. Title : English DTS-HD Master Audio 5.1 @ 3694 kbps

  59. Language : English

  60. Default : Yes

  61. Forced : No

  62. Audio #2

  63. ID : 3

  64. Format : AC-3

  65. Format/Info : Audio Coding 3

  66. Commercial name : Dolby Digital

  67. Codec ID : A_AC3

  68. Duration : 1 h 40 min

  69. Bit rate mode : Constant

  70. Bit rate : 192 kb/s

  71. Channel(s) : 2 channels

  72. Channel layout : L R

  73. Sampling rate : 48.0 kHz

  74. Frame rate : 31.250 FPS (1536 SPF)

  75. Compression mode : Lossy

  76. Stream size : 137 MiB (2%)

  77. Title : English Dolby Digital Audio 2.0 @ 192 kbps Commentary

  78. Language : English

  79. Service kind : Complete Main

  80. Default : No

  81. Forced : No

  82. Text #1

  83. ID : 4

  84. Format : PGS

  85. Codec ID : S_HDMV/PGS

  86. Codec ID/Info : Picture based subtitle format used on BDs/HD-DVDs

  87. Duration : 1 h 34 min

  88. Bit rate : 22.7 kb/s

  89. Count of elements : 1664

  90. Stream size : 15.3 MiB (0%)

  91. Title : Eng/SUP

  92. Language : English

  93. Default : No

  94. Forced : No

  95. Text #2

  96. ID : 5

  97. Format : PGS

  98. Codec ID : S_HDMV/PGS

  99. Codec ID/Info : Picture based subtitle format used on BDs/HD-DVDs

  100. Duration : 1 h 35 min

  101. Bit rate : 44.5 kb/s

  102. Count of elements : 2283

  103. Stream size : 30.3 MiB (0%)

  104. Title : Eng/SUP Commentary

  105. Language : English

  106. Default : No

  107. Forced : No

  108. Text #3

  109. ID : 6

  110. Format : PGS

  111. Codec ID : S_HDMV/PGS

  112. Codec ID/Info : Picture based subtitle format used on BDs/HD-DVDs

  113. Duration : 1 h 39 min

  114. Bit rate : 10.9 kb/s

  115. Count of elements : 1220

  116. Stream size : 7.73 MiB (0%)

  117. Title : Cht/SUP 原盘繁体(HK)

  118. Language : Chinese

  119. Default : No

  120. Forced : No

  121. Text #4

  122. ID : 7

  123. Format : PGS

  124. Codec ID : S_HDMV/PGS

  125. Codec ID/Info : Picture based subtitle format used on BDs/HD-DVDs

  126. Duration : 1 h 39 min

  127. Bit rate : 13.5 kb/s

  128. Count of elements : 1300

  129. Stream size : 9.59 MiB (0%)

  130. Title : Cht/SUP 原盘繁体(TW)

  131. Language : Chinese

  132. Default : Yes

  133. Forced : No


复制代码



文件下载


除非特别注明,本文『妈妈[繁英字幕].Mama.2013.BluRay.1080p.DTS-HD.MA5.1.x265.10bit-ALT 6.76GB』来源于互联网机器人自动抓取,非本站原创。 浮游电影网不对本文拥有版权,如有侵犯,请联系邮箱:fuyouu#yandex.com[#换成@]投诉。我们会在15个工作日内删除。 但烦请转载时请标明出处:“本文转载于『浮游电影网』,原文地址:https://www.fuyouu.com/21250.html

评论吧骚年!

发表你的见解   

昵称*

E-mail*(建议输入,以便收到博主回复的提示邮件)

验证码*

您可以使用eMule或eMule Mod(Windows)、aMule(Win、Linux、Mac)等软件下载eD2k链接。。
eMule收藏集(.emulecollection)文件是您选中的所有链接的列表文件。eMule可以直接下载它们。
按住SHIFT键选择可以选中多个选择框。
可用文件名和大小选择器来选择文件。
文件名选择器帮您根据文件名称或后缀来选择文件。不分大小写。
符号使用:
和:空格( )、+
不包含:-
或:|
转义:一对英文引号("");
匹配开头:^
匹配结尾:$
例如:
选中所有名称中包含有“eMule”或“0.49c”字眼,但不包含有“exe”字眼的:emule|0.49c -exe
选中所有名称的开头是“eMule”,结尾是“0.49c”的:^emule 0.49c$
选中所有名称中带有“eMule 0.49c”的(必须是“eMule 0.49c”,中间没有别的字符,不能是“eMule fake 0.49c”),需要转义:"emule 0.49c"
大小选择器帮您根据文件大小选择文件。