当前位置: 首页 >> 海外电影 >> 落头氏之吻[中英字幕].Krasue.Inhuman.Kiss.2019.BluRay.1080p.x265.10bit.TrueHD.5.1-OPT 16.04GB >> 正文

落头氏之吻[中英字幕].Krasue.Inhuman.Kiss.2019.BluRay.1080p.x265.10bit.TrueHD.5.1-OPT 16.04GB

2022年04月12日 14:23:02     电影发布:来源于网络     电影分类:海外电影     评论(0)    

落头氏之吻[中英字幕].Krasue.Inhuman.Kiss.2019.BluRay.1080p.x265.10bit.TrueHD.5.1 OPT 16.04GB 奇幻 惊悚 剧情 海外电影  第1张

◎译 名 落头氏之吻 / 飞人类之吻(港) / Krasue: Inhuman Kiss

◎片 名 ?????????

◎年 代 2019

◎产 地 泰国

◎类 别 剧情 / 惊悚 / 奇幻

◎语 言 泰语

◎上映日期 2019-03-14(泰国)

◎IMDb链接 https://www.imdb.com/title/tt9799992/

◎豆瓣评分 5.7/10 (2217人评价)

◎豆瓣链接 https://movie.douban.com/subject/30451884/

◎片 长 123分钟

◎导 演 西蒂斯里·蒙哥西里 Sitisiri Mongkolsiri (id:1419880)

◎编 剧 西蒂斯里·蒙哥西里 Sitisiri Mongkolsiri (id:1419880)

楚克·萨克瑞科 Chukiat Sakveerakul (id:1274861)

◎演 员 芬蒂拉·皮皮亚克隆 Phantira Pipityakorn (id:1416468)

抔米提·米弯投瓦兰 Oabnithi Wiwattanawarang (id:1352879)

格雷特·萨博尔 Sapol Assawamunkong (id:1377301)

苏叻沙克·旺特海 Surasak Wongthai (id:1419881)

萨哈贾克·波斯安吉特 Sahajak Boonthanakit (id:1351809)

Duangjai Hiransri Duangjai Hiransri (id:1389996)

黛莉娜·班楚 Darina Bunchu (id:1454930)

◎简 介

在一个偏远的村庄里,住着一个天真善良的女孩儿Sai,有一天她发现自己继承了女鬼krasue的诅咒,一到晚上,她的头会与躯体分离并捕食村里的牲畜,村民见牲畜死状离奇,便猜测是女鬼krasue干的,村民打算杀掉Sai,深爱着Sai的Jerd和Noi决定帮助她战胜诅咒。

  1. ##### MediaInfo ######

  2. General

  3. Unique ID : 205916389589978118097501663459257595680 (0x9AEA0DD7DE61FDAEB9E92C07427BB720)

  4. Complete name : Krasue.Inhuman.Kiss.2019.BluRay.1080p.x265.10bit.TrueHD.5.1-HDH.mkv

  5. Format : Matroska

  6. Format version : Version 4

  7. File size : 16.0 GiB

  8. Duration : 2 h 1 min

  9. Overall bit rate mode : Variable

  10. Overall bit rate : 18.8 Mb/s

  11. Movie name : KRASUE_INHUMAN_KISS.Title1

  12. Encoded date : UTC 2020-01-27 05:16:16

  13. Writing application : mkvmerge v40.0.0 ('Old Town Road + Pony') 64-bit

  14. Writing library : libebml v1.3.9 + libmatroska v1.5.2

  15. Video

  16. ID : 1

  17. Format : HEVC

  18. Format/Info : High Efficiency Video Coding

  19. Format profile : Main [email protected]@High

  20. Codec ID : V_MPEGH/ISO/HEVC

  21. Duration : 2 h 1 min

  22. Bit rate : 14.5 Mb/s

  23. Width : 1 920 pixels

  24. Height : 856 pixels

  25. Display aspect ratio : 2.25:1

  26. Frame rate mode : Constant

  27. Frame rate : 24.000 FPS

  28. Color space : YUV

  29. Chroma subsampling : 4:2:0

  30. Bit depth : 10 bits

  31. Bits/(Pixel*Frame) : 0.368

  32. Stream size : 12.4 GiB (77%)

  33. Default : Yes

  34. Forced : No

  35. Color range : Limited

  36. Color primaries : BT.709

  37. Transfer characteristics : BT.709

  38. Matrix coefficients : BT.709

  39. Audio #1

  40. ID : 2

  41. Format : MLP FBA

  42. Format/Info : Meridian Lossless Packing FBA

  43. Commercial name : Dolby TrueHD

  44. Codec ID : A_TRUEHD

  45. Duration : 2 h 1 min

  46. Bit rate mode : Variable

  47. Bit rate : 2 942 kb/s

  48. Maximum bit rate : 4 956 kb/s

  49. Channel(s) : 6 channels

  50. Channel layout : L R C LFE Ls Rs

  51. Sampling rate : 96.0 kHz

  52. Frame rate : 1 200.000 FPS (80 SPF)

  53. Compression mode : Lossless

  54. Stream size : 2.51 GiB (16%)

  55. Language : Thai

  56. Default : Yes

  57. Forced : No

  58. Audio #2

  59. ID : 3

  60. Format : AC-3

  61. Format/Info : Audio Coding 3

  62. Commercial name : Dolby Digital

  63. Codec ID : A_AC3

  64. Duration : 2 h 1 min

  65. Bit rate mode : Constant

  66. Bit rate : 640 kb/s

  67. Channel(s) : 6 channels

  68. Channel layout : L R C LFE Ls Rs

  69. Sampling rate : 48.0 kHz

  70. Frame rate : 31.250 FPS (1536 SPF)

  71. Compression mode : Lossy

  72. Stream size : 558 MiB (3%)

  73. Language : Thai

  74. Service kind : Complete Main

  75. Default : No

  76. Forced : No

  77. Audio #3

  78. ID : 4

  79. Format : AC-3

  80. Format/Info : Audio Coding 3

  81. Commercial name : Dolby Digital

  82. Codec ID : A_AC3

  83. Duration : 2 h 1 min

  84. Bit rate mode : Constant

  85. Bit rate : 640 kb/s

  86. Channel(s) : 6 channels

  87. Channel layout : L R C LFE Ls Rs

  88. Sampling rate : 48.0 kHz

  89. Frame rate : 31.250 FPS (1536 SPF)

  90. Compression mode : Lossy

  91. Stream size : 558 MiB (3%)

  92. Language : Thai

  93. Service kind : Complete Main

  94. Default : No

  95. Forced : No

  96. Text #1

  97. ID : 5

  98. Format : PGS

  99. Muxing mode : zlib

  100. Codec ID : S_HDMV/PGS

  101. Codec ID/Info : Picture based subtitle format used on BDs/HD-DVDs

  102. Duration : 1 h 55 min

  103. Bit rate : 12.4 kb/s

  104. Count of elements : 1289

  105. Stream size : 10.3 MiB (0%)

  106. Language : Chinese

  107. Default : Yes

  108. Forced : No

  109. Text #2

  110. ID : 6

  111. Format : PGS

  112. Muxing mode : zlib

  113. Codec ID : S_HDMV/PGS

  114. Codec ID/Info : Picture based subtitle format used on BDs/HD-DVDs

  115. Duration : 1 h 55 min

  116. Bit rate : 12.1 kb/s

  117. Count of elements : 1289

  118. Stream size : 10.0 MiB (0%)

  119. Language : Chinese

  120. Default : No

  121. Forced : No

  122. Text #3

  123. ID : 7

  124. Format : PGS

  125. Muxing mode : zlib

  126. Codec ID : S_HDMV/PGS

  127. Codec ID/Info : Picture based subtitle format used on BDs/HD-DVDs

  128. Duration : 1 h 55 min

  129. Bit rate : 13.4 kb/s

  130. Count of elements : 1287

  131. Stream size : 11.1 MiB (0%)

  132. Language : English

  133. Default : No

  134. Forced : No

  135. Menu

  136. 00:00:00.000 : en:(01)00:00:00:000

  137. 00:06:13.666 : en:(02)00:06:13:666

  138. 00:12:43.458 : en:(03)00:12:43:458

  139. 00:17:39.416 : en:(04)00:17:39:416

  140. 00:22:46.833 : en:(05)00:22:46:833

  141. 00:28:39.416 : en:(06)00:28:39:416

  142. 00:34:52.166 : en:(07)00:34:52:166

  143. 00:42:30.416 : en:(08)00:42:30:416

  144. 00:48:41.833 : en:(09)00:48:41:833

  145. 00:55:26.208 : en:(10)00:55:26:208

  146. 01:00:59.166 : en:(11)01:00:59:166

  147. 01:06:53.375 : en:(12)01:06:53:375

  148. 01:12:40.708 : en:(13)01:12:40:708

  149. 01:21:33.458 : en:(14)01:21:33:458

  150. 01:25:54.708 : en:(15)01:25:54:708

  151. 01:33:05.375 : en:(16)01:33:05:375

  152. 01:36:39.500 : en:(17)01:36:39:500

  153. 01:46:32.833 : en:(18)01:46:32:833

  154. 01:49:04.041 : en:(19)01:49:04:041

  155. 01:57:26.416 : en:(20)01:57:26:416

  156. 02:01:59.250 : en:(21)02:01:59:250


复制代码


文件下载


除非特别注明,本文『落头氏之吻[中英字幕].Krasue.Inhuman.Kiss.2019.BluRay.1080p.x265.10bit.TrueHD.5.1-OPT 16.04GB』来源于互联网机器人自动抓取,非本站原创。 浮游电影网不对本文拥有版权,如有侵犯,请联系邮箱:fuyouu#yandex.com[#换成@]投诉。我们会在15个工作日内删除。 但烦请转载时请标明出处:“本文转载于『浮游电影网』,原文地址:https://www.fuyouu.com/21246.html

评论吧骚年!

发表你的见解   

昵称*

E-mail*(建议输入,以便收到博主回复的提示邮件)

验证码*

您可以使用eMule或eMule Mod(Windows)、aMule(Win、Linux、Mac)等软件下载eD2k链接。。
eMule收藏集(.emulecollection)文件是您选中的所有链接的列表文件。eMule可以直接下载它们。
按住SHIFT键选择可以选中多个选择框。
可用文件名和大小选择器来选择文件。
文件名选择器帮您根据文件名称或后缀来选择文件。不分大小写。
符号使用:
和:空格( )、+
不包含:-
或:|
转义:一对英文引号("");
匹配开头:^
匹配结尾:$
例如:
选中所有名称中包含有“eMule”或“0.49c”字眼,但不包含有“exe”字眼的:emule|0.49c -exe
选中所有名称的开头是“eMule”,结尾是“0.49c”的:^emule 0.49c$
选中所有名称中带有“eMule 0.49c”的(必须是“eMule 0.49c”,中间没有别的字符,不能是“eMule fake 0.49c”),需要转义:"emule 0.49c"
大小选择器帮您根据文件大小选择文件。