当前位置: 首页 >> 海外电影 >> 姐妹[简体字幕].Summer.We.Found.Our.Superpowers.2020.1080p.WEB-DL.AAC2.0.H.264-CTRLWEB 2.08GB >> 正文

姐妹[简体字幕].Summer.We.Found.Our.Superpowers.2020.1080p.WEB-DL.AAC2.0.H.264-CTRLWEB 2.08GB

2022年04月12日 14:15:48     电影发布:来源于网络     电影分类:海外电影     评论(0)    

姐妹[简体字幕].Summer.We.Found.Our.Superpowers.2020.1080p.WEB DL.AAC2.0.H.264 CTRLWEB 2.08GB 剧情 海外电影  第1张

◎译 名 姐妹 / sisters

◎片 名 Tottori! Sommeren vi var alene

◎年 代 2020

◎产 地 挪威

◎类 别 剧情

◎语 言 挪威语

◎上映日期 2020-08-07(挪威)

◎IMDb链接 https://www.imdb.com/title/tt12553244/

◎豆瓣链接 https://movie.douban.com/subject/35287838/

◎片 长 78分钟

◎导 演 Arild ?stin Ommundsen Arild ?stin Ommundsen (id:1293579)

◎简 介

森林遠足時爸爸失足掉入山洞!小姊妹倆感到無助,卻也手牽著手克服恐懼,盡全力尋求救援。

  1. ##### MediaInfo ######

  2. General

  3. Unique ID : 264753652428789694113453853362834153223 (0xC72DB2DEA611A47524B4E4AB15BC9F07)

  4. Complete name : Sisters:The.Summer.[email protected]CHDWEB.mkv

  5. Format : Matroska

  6. Format version : Version 4

  7. File size : 2.08 GiB

  8. Duration : 1 h 18 min

  9. Overall bit rate : 3 803 kb/s

  10. Encoded date : UTC 2022-01-21 09:09:41

  11. Writing application : mkvmerge v56.1.0 ('My Friend') 64-bit

  12. Writing library : libebml v1.4.2 + libmatroska v1.6.4

  13. Video

  14. ID : 1

  15. Format : AVC

  16. Format/Info : Advanced Video Codec

  17. Format profile : [email protected]

  18. Format settings : CABAC / 1 Ref Frames

  19. Format settings, CABAC : Yes

  20. Format settings, Reference frames : 1 frame

  21. Format settings, GOP : M=1, N=60

  22. Codec ID : V_MPEG4/ISO/AVC

  23. Duration : 1 h 18 min

  24. Bit rate mode : Constant

  25. Bit rate : 3 675 kb/s

  26. Nominal bit rate : 4 000 kb/s

  27. Width : 1 920 pixels

  28. Height : 1 080 pixels

  29. Display aspect ratio : 16:9

  30. Frame rate mode : Constant

  31. Frame rate : 29.970 (30000/1001/53354) FPS

  32. Color space : YUV

  33. Chroma subsampling : 4:2:0

  34. Bit depth : 8 bits

  35. Scan type : Progressive

  36. Bits/(Pixel*Frame) : 0.059

  37. Stream size : 2.01 GiB (97%)

  38. Language : English

  39. Default : Yes

  40. Forced : No

  41. Audio

  42. ID : 2

  43. Format : AAC LC

  44. Format/Info : Advanced Audio Codec Low Complexity

  45. Codec ID : A_AAC-2

  46. Duration : 1 h 18 min

  47. Bit rate : 125 kb/s

  48. Channel(s) : 2 channels

  49. Channel layout : L R

  50. Sampling rate : 48.0 kHz

  51. Frame rate : 46.875 FPS (1024 SPF)

  52. Compression mode : Lossy

  53. Stream size : 70.1 MiB (3%)

  54. Language : Norwegian

  55. Default : Yes

  56. Forced : No

  57. Text #1

  58. ID : 3

  59. Format : UTF-8

  60. Codec ID : S_TEXT/UTF8

  61. Codec ID/Info : UTF-8 Plain Text

  62. Duration : 1 h 15 min

  63. Bit rate : 28 b/s

  64. Count of elements : 668

  65. Stream size : 15.8 KiB (0%)

  66. Title : Chinese Simplified

  67. Language : Chinese

  68. Default : Yes

  69. Forced : No

  70. Text #2

  71. ID : 4

  72. Format : UTF-8

  73. Codec ID : S_TEXT/UTF8

  74. Codec ID/Info : UTF-8 Plain Text

  75. Duration : 1 h 15 min

  76. Bit rate : 28 b/s

  77. Count of elements : 668

  78. Stream size : 15.8 KiB (0%)

  79. Title : Chinese Traditional

  80. Language : Chinese

  81. Default : No

  82. Forced : No


复制代码




文件下载


除非特别注明,本文『姐妹[简体字幕].Summer.We.Found.Our.Superpowers.2020.1080p.WEB-DL.AAC2.0.H.264-CTRLWEB 2.08GB』来源于互联网机器人自动抓取,非本站原创。 浮游电影网不对本文拥有版权,如有侵犯,请联系邮箱:fuyouu#yandex.com[#换成@]投诉。我们会在15个工作日内删除。 但烦请转载时请标明出处:“本文转载于『浮游电影网』,原文地址:https://www.fuyouu.com/21240.html

评论吧骚年!

发表你的见解   

昵称*

E-mail*(建议输入,以便收到博主回复的提示邮件)

验证码*

您可以使用eMule或eMule Mod(Windows)、aMule(Win、Linux、Mac)等软件下载eD2k链接。。
eMule收藏集(.emulecollection)文件是您选中的所有链接的列表文件。eMule可以直接下载它们。
按住SHIFT键选择可以选中多个选择框。
可用文件名和大小选择器来选择文件。
文件名选择器帮您根据文件名称或后缀来选择文件。不分大小写。
符号使用:
和:空格( )、+
不包含:-
或:|
转义:一对英文引号("");
匹配开头:^
匹配结尾:$
例如:
选中所有名称中包含有“eMule”或“0.49c”字眼,但不包含有“exe”字眼的:emule|0.49c -exe
选中所有名称的开头是“eMule”,结尾是“0.49c”的:^emule 0.49c$
选中所有名称中带有“eMule 0.49c”的(必须是“eMule 0.49c”,中间没有别的字符,不能是“eMule fake 0.49c”),需要转义:"emule 0.49c"
大小选择器帮您根据文件大小选择文件。