当前位置: 首页 >> 欧美电影 >> 移动迷宫[共3部合集][国英多音轨/简繁英字幕].Maze.Runner.Trilogy.2014-2018.BluRay.1080p.DTS-HD.MA7.1.x265.10bit-ALT 27.3 >> 正文

移动迷宫[共3部合集][国英多音轨/简繁英字幕].Maze.Runner.Trilogy.2014-2018.BluRay.1080p.DTS-HD.MA7.1.x265.10bit-ALT 27.3

2022年04月10日 20:52:41     电影发布:来源于网络     电影分类:欧美电影     评论(0)    

移动迷宫[共3部合集][国英多音轨/简繁英字幕].Maze.Runner.Trilogy.2014 2018.BluRay.1080p.DTS HD.MA7.1.x265.10bit ALT 27.3 科幻 冒险 动作 欧美电影  第1张

◎译 名 移动迷宫 / 迷宫行者

◎片 名 The Maze Runner

◎年 代 2014

◎产 地 美国 / 英国

◎类 别 动作 / 科幻 / 冒险

◎语 言 英语

◎上映日期 2014-10-28(中国大陆) / 2014-09-19(美国)

◎IMDb链接 https://www.imdb.com/title/tt1790864/

◎豆瓣评分 7.0/10 (196248人评价)

◎豆瓣链接 https://movie.douban.com/subject/21349345/

◎片 长 113分钟

◎导 演 韦斯·鲍尔 Wes Ball (id:1332723)

◎编 剧 诺亚·奥本海姆 Noah Oppenheim (id:1333683)

格兰特·迈尔斯 Grant Myers (id:1040351)

T·S·诺林 T.S. Nowlin (id:1342902)

詹姆斯·达什纳 James Dashner (id:1333681)

◎演 员 迪伦·奥布莱恩 Dylan O'Brien (id:1314963)

阿梅尔·艾米恩 Aml Ameen (id:1194285)

李起弘 Ki Hong Lee (id:1333684)

布雷克·库珀 Blake Cooper (id:1333686)

托马斯·布罗迪-桑斯特 Thomas Brodie-Sangster (id:1016669)

威尔·保尔特 Will Poulter (id:1004692)

德克斯特·达登 Dexter Darden (id:1333688)

卡雅·斯考达里奥 Kaya Scodelario (id:1031178)

克里斯·谢菲尔德 Chris Sheffield (id:1191404)

乔·阿德勒 Joe Adler (id:1333689)

亚历山大·弗洛里斯 Alexander Flores (id:1333691)

雅各布·拉提摩尔 Jacob Latimore (id:1273668)

兰德尔·D·坎宁安 Randall D. Cunningham (id:1333690)

派翠西娅·克拉克森 Patricia Clarkson (id:1013791)

唐·麦克马纳斯 Don McManus (id:1333685)

加里·胡德 Gary Hood (id:1333692)

乔凡尼·席尔瓦 Giovanni Silva (id:1342709)

古斯塔沃·奥尔蒂斯 Gustavo I. Ortiz (id:1342710)

布莱斯·罗梅罗 Bryce Romero (id:1344145)

卡尔·格林 Carl Greene (id:1333687)

迈克尔·鲍 Michael Bow (id:1440714)

约翰·帕萨诺 John Paesano (id:1343732)

◎简 介

男孩托马斯(迪伦·欧布莱恩 Dylan O'Brien 饰)在电梯中醒来,奇怪的是他除了名字之外什么都记不得。当电梯打开,他来到了一个陌生的地方“林间空地”。这里四周被高大的石头墙包围着,墙内住着许多男孩,有纽特(托马斯·桑斯特 Thomas Sangster 饰)、查克(布雷克·库珀 Blake Cooper 饰)、米诺(李基弘 Ki Hong Lee 饰)等人,他们都被困在迷宫里,而墙外还有一群巨大的怪兽威胁着。一天,电梯为他们送来了一个女孩特雷莎(卡雅·斯考达里奥 Kaya Scodelario 饰),她是来这里的第一个女孩。此后,迷宫逐渐开始发生变化,一切都陷入了混乱中,托马斯和特雷莎决定一起走上破解迷宫之路,找出迷宫背后令人不寒而栗的秘密。

影片改编自詹姆斯·达什纳撰写的同名反乌托邦科幻小说三部曲的第一本。

◎获奖情况 (共6项)

第17届美国青少年选择奖 (2015)

最佳动作片(提名)

最佳动作片男演员(提名)

└──迪伦·奥布莱恩 (id:1314963)

最佳动作片女演员(提名)

└──卡雅·斯考达里奥 (id:1031178)

最佳突破表演电影新星(提名)

└──托马斯·布罗迪-桑斯特 (id:1016669)

最佳银幕拍档(提名)

第1届豆瓣电影年度榜单 (2014)

11月最受关注电影(提名)

  1. 合集文件列表:

  2. 1.Maze.Runner.The.Death.Cure.2018.BluRay.1080p.2Audio.DTS-HD.MA7.1.x265.10bit-ALT.mkv 10.88GB

  3. 2.Maze.Runner.The.Scorch.Trials.2015.BluRay.1080p.DTS-HD.MA7.1.x265.10bit-ALT.mkv 8.35GB

  4. 3.The.Maze.Runner.2014.BluRay.1080p.DTS-HD.MA7.1.x265.10bit-ALT.mkv 8.16GB


复制代码

  1. ##### MediaInfo ######

  2. General

  3. Unique ID : 117825767810519893831005193319336522002 (0x58A46ADDA764A7FEA800CC890AFE3112)

  4. Complete name : Maze.Runner.The.Death.Cure.2018.BluRay.1080p.2Audio.DTS-HD.MA7.1.x265.10bit-BeiTai.mkv

  5. Format : Matroska

  6. Format version : Version 4

  7. File size : 10.9 GiB

  8. Duration : 2 h 23 min

  9. Overall bit rate mode : Variable

  10. Overall bit rate : 10.8 Mb/s

  11. Encoded date : UTC 2021-02-20 04:43:34

  12. Writing application : mkvmerge v49.0.0 ('Sick Of Losing Soulmates') 64-bit

  13. Writing library : libebml v1.4.0 + libmatroska v1.6.1

  14. Video

  15. ID : 1

  16. Format : HEVC

  17. Format/Info : High Efficiency Video Coding

  18. Format profile : Main [email protected]@High

  19. Codec ID : V_MPEGH/ISO/HEVC

  20. Duration : 2 h 23 min

  21. Bit rate : 4 955 kb/s

  22. Width : 1 920 pixels

  23. Height : 800 pixels

  24. Display aspect ratio : 2.40:1

  25. Frame rate mode : Constant

  26. Frame rate : 23.976 (24000/1001/53354) FPS

  27. Color space : YUV

  28. Chroma subsampling : 4:2:0

  29. Bit depth : 10 bits

  30. Bits/(Pixel*Frame) : 0.135

  31. Stream size : 4.98 GiB (46%)

  32. Title : HEVC, [email protected]@High, 24/1.001 fps @ 4954 kbps

  33. Writing library : x265 3.4+14-gd419c7152:[Windows][GCC 10.2.0][64 bit] 10bit

  34. Encoding settings : cpuid=533541111039 / frame-threads=4 / numa-pools=16 / wpp / pmode / pme / no-psnr / no-ssim / log-level=2 / input-csp=1 / input-res=1920x800 / interlace=0 / total-frames=206976 / level-idc=51 / high-tier=1 / uhd-bd=0 / ref=5 / no-allow-non-conformance / no-repeat-headers / annexb / no-aud / no-hrd / info / hash=0 / no-temporal-layers / open-gop / min-keyint=24 / keyint=240 / gop-lookahead=0 / bframes=6 / b-adapt=2 / b-pyramid / bframe-bias=0 / rc-lookahead=40 / lookahead-slices=0 / NTMzNTQ=uuDQuD2mJt9fsCf / scenecut=40 / hist-scenecut=0 / radl=0 / no-splice / no-intra-refresh / ctu=32 / min-cu-size=8 / no-rect / no-amp / max-tu-size=32 / tu-inter-depth=3 / tu-intra-depth=3 / limit-tu=4 / rdoq-level=2 / dynamic-rd=0.00 / no-ssim-rd / signhide / no-tskip / nr-intra=0 / nr-inter=0 / no-constrained-intra / no-strong-intra-smoothing / max-merge=4 / limit-refs=1 / limit-modes / me=3 / subme=4 / merange=25 / temporal-mvp / no-frame-dup / no-hme / weightp / weightb / no-analyze-src-pics / deblock=-3:-3 / no-sao / no-sao-non-deblock / rd=6 / selective-sao=0 / no-early-skip / rskip / no-fast-intra / no-tskip-fast / no-cu-lossless / b-intra / no-splitrd-skip / rdpenalty=0 / psy-rd=2.00 / psy-rdoq=1.00 / no-rd-refine / no-lossless / cbqpoffs=0 / crqpoffs=0 / rc=crf / crf=17.0 / qcomp=0.65 / qpstep=4 / stats-write=0 / stats-read=0 / vbv-maxrate=80000 / vbv-bufsize=80000 / vbv-init=0.9 / crf-max=0.0 / crf-min=0.0 / ipratio=1.40 / pbratio=1.30 / aq-mode=2 / aq-strength=0.85 / cutree / zone-count=0 / no-strict-cbr / qg-size=32 / no-rc-grain / qpmax=69 / qpmin=0 / no-const-vbv / sar=1 / overscan=0 / videoformat=5 / range=0 / colorprim=1 / transfer=1 / colormatrix=1 / chromaloc=0 / display-window=0 / cll=0,0 / min-luma=0 / max-luma=1023 / log2-max-poc-lsb=8 / vui-timing-info / vui-hrd-info / slices=1 / no-opt-qp-pps / no-opt-ref-list-length-pps / no-multi-pass-opt-rps / scenecut-bias=0.05 / hist-threshold=0.03 / no-opt-cu-delta-qp / no-aq-motion / no-hdr10 / no-hdr10-opt / no-dhdr10-opt / no-idr-recovery-sei / analysis-reuse-level=0 / analysis-save-reuse-level=0 / analysis-load-reuse-level=0 / scale-factor=0 / refine-intra=0 / refine-inter=0 / refine-mv=1 / refine-ctu-distortion=0 / no-limit-sao / ctu-info=0 / no-lowpass-dct / refine-analysis-type=0 / copy-pic=1 / max-ausize-factor=1.0 / no-dynamic-refine / no-single-sei / no-hevc-aq / no-svt / no-field / qp-adaptation-range=1.00 / no-scenecut-aware-qpconformance-window-offsets / right=0 / bottom=0 / NTMzNTQ= / decoder-max-rate=0

  35. Language : English

  36. Default : Yes

  37. Forced : No

  38. Color range : Limited

  39. Color primaries : BT.709

  40. Transfer characteristics : BT.709

  41. Matrix coefficients : BT.709

  42. Audio #1

  43. ID : 2

  44. Format : DTS XLL

  45. Format/Info : Digital Theater Systems

  46. Commercial name : DTS-HD Master Audio

  47. Codec ID : A_DTS

  48. Duration : 2 h 23 min

  49. Bit rate mode : Variable

  50. Bit rate : 5 120 kb/s

  51. Channel(s) : 8 channels

  52. Channel layout : C L R LFE Lb Rb Lss Rss

  53. Sampling rate : 48.0 kHz

  54. Frame rate : 93.750 FPS (512 SPF)

  55. Bit depth : 24 bits

  56. Compression mode : Lossless

  57. Stream size : 5.15 GiB (47%)

  58. Title : English DTS-HD Master Audio 7.1 @ 5120 kbps

  59. Language : English

  60. Default : Yes

  61. Forced : No

  62. Audio #2

  63. ID : 3

  64. Format : AC-3

  65. Format/Info : Audio Coding 3

  66. Commercial name : Dolby Digital

  67. Codec ID : A_AC3

  68. Duration : 2 h 23 min

  69. Bit rate mode : Constant

  70. Bit rate : 448 kb/s

  71. Channel(s) : 6 channels

  72. Channel layout : L R C LFE Ls Rs

  73. Sampling rate : 48.0 kHz

  74. Frame rate : 31.250 FPS (1536 SPF)

  75. Compression mode : Lossy

  76. Stream size : 461 MiB (4%)

  77. Title : Mandarin Dolby Digital Audio 5.1 @ 448 kbps

  78. Language : Chinese

  79. Service kind : Complete Main

  80. Default : No

  81. Forced : No

  82. Audio #3

  83. ID : 4

  84. Format : AC-3

  85. Format/Info : Audio Coding 3

  86. Commercial name : Dolby Digital

  87. Codec ID : A_AC3

  88. Duration : 2 h 23 min

  89. Bit rate mode : Constant

  90. Bit rate : 224 kb/s

  91. Channel(s) : 2 channels

  92. Channel layout : L R

  93. Sampling rate : 48.0 kHz

  94. Frame rate : 31.250 FPS (1536 SPF)

  95. Compression mode : Lossy

  96. Stream size : 231 MiB (2%)

  97. Title : English Dolby Digital Audio 2.0 @ 224 kbps Commentary

  98. Language : English

  99. Service kind : Complete Main

  100. Default : No

  101. Forced : No

  102. Text #1

  103. ID : 5

  104. Format : PGS

  105. Codec ID : S_HDMV/PGS

  106. Codec ID/Info : Picture based subtitle format used on BDs/HD-DVDs

  107. Duration : 2 h 15 min

  108. Bit rate : 22.7 kb/s

  109. Count of elements : 2778

  110. Stream size : 22.0 MiB (0%)

  111. Title : Eng/SUP

  112. Language : English

  113. Default : No

  114. Forced : No

  115. Text #2

  116. ID : 6

  117. Format : PGS

  118. Codec ID : S_HDMV/PGS

  119. Codec ID/Info : Picture based subtitle format used on BDs/HD-DVDs

  120. Duration : 2 h 23 min

  121. Bit rate : 18.2 kb/s

  122. Count of elements : 2726

  123. Stream size : 18.7 MiB (0%)

  124. Title : Chs/SUP 原盘简体

  125. Language : Chinese

  126. Default : Yes

  127. Forced : No

  128. Text #3

  129. ID : 7

  130. Format : PGS

  131. Codec ID : S_HDMV/PGS

  132. Codec ID/Info : Picture based subtitle format used on BDs/HD-DVDs

  133. Duration : 2 h 22 min

  134. Bit rate : 16.4 kb/s

  135. Count of elements : 2792

  136. Stream size : 16.7 MiB (0%)

  137. Title : Cht/SUP 原盘繁体(HK)

  138. Language : Chinese

  139. Default : No

  140. Forced : No

  141. Text #4

  142. ID : 8

  143. Format : PGS

  144. Codec ID : S_HDMV/PGS

  145. Codec ID/Info : Picture based subtitle format used on BDs/HD-DVDs

  146. Duration : 2 h 22 min

  147. Bit rate : 16.1 kb/s

  148. Count of elements : 2864

  149. Stream size : 16.4 MiB (0%)

  150. Title : Cht/SUP 原盘繁体(TW)

  151. Language : Chinese

  152. Default : No

  153. Forced : No

  154. Menu

  155. 00:00:00.000 : :第 01 章

  156. 00:11:31.608 : :第 02 章

  157. 00:15:59.750 : :第 03 章

  158. 00:20:08.457 : :第 04 章

  159. 00:24:34.890 : :第 05 章

  160. 00:30:40.547 : :第 06 章

  161. 00:36:47.330 : :第 07 章

  162. 00:43:15.343 : :第 08 章

  163. 00:48:06.342 : :第 09 章

  164. 00:55:17.397 : :第 10 章

  165. 01:02:42.926 : :第 11 章

  166. 01:07:14.489 : :第 12 章

  167. 01:11:56.062 : :第 13 章

  168. 01:15:48.210 : :第 14 章

  169. 01:23:20.329 : :第 15 章

  170. 01:29:45.422 : :第 16 章

  171. 01:34:00.593 : :第 17 章

  172. 01:40:09.795 : :第 18 章

  173. 01:43:33.082 : :第 19 章

  174. 01:53:38.645 : :第 20 章

  175. 01:59:43.885 : :第 21 章

  176. 02:04:49.399 : :第 22 章

  177. 02:10:03.087 : :第 23 章

  178. 02:18:03.859 : :第 24 章


复制代码



文件下载


除非特别注明,本文『移动迷宫[共3部合集][国英多音轨/简繁英字幕].Maze.Runner.Trilogy.2014-2018.BluRay.1080p.DTS-HD.MA7.1.x265.10bit-ALT 27.3』来源于互联网机器人自动抓取,非本站原创。 浮游电影网不对本文拥有版权,如有侵犯,请联系邮箱:fuyouu#yandex.com[#换成@]投诉。我们会在15个工作日内删除。 但烦请转载时请标明出处:“本文转载于『浮游电影网』,原文地址:https://www.fuyouu.com/21229.html

评论吧骚年!

发表你的见解   

昵称*

E-mail*(建议输入,以便收到博主回复的提示邮件)

验证码*

您可以使用eMule或eMule Mod(Windows)、aMule(Win、Linux、Mac)等软件下载eD2k链接。。
eMule收藏集(.emulecollection)文件是您选中的所有链接的列表文件。eMule可以直接下载它们。
按住SHIFT键选择可以选中多个选择框。
可用文件名和大小选择器来选择文件。
文件名选择器帮您根据文件名称或后缀来选择文件。不分大小写。
符号使用:
和:空格( )、+
不包含:-
或:|
转义:一对英文引号("");
匹配开头:^
匹配结尾:$
例如:
选中所有名称中包含有“eMule”或“0.49c”字眼,但不包含有“exe”字眼的:emule|0.49c -exe
选中所有名称的开头是“eMule”,结尾是“0.49c”的:^emule 0.49c$
选中所有名称中带有“eMule 0.49c”的(必须是“eMule 0.49c”,中间没有别的字符,不能是“eMule fake 0.49c”),需要转义:"emule 0.49c"
大小选择器帮您根据文件大小选择文件。