当前位置: 首页 >> 港台电影 >> 志明与春娇[共3部合集][国粤英多音轨/简繁英字幕].Love.in.a.Puff.2010-2017.BluRay.1080p.2Audio.TrueHD.7.1.x265.10bit-ALT 37 >> 正文

志明与春娇[共3部合集][国粤英多音轨/简繁英字幕].Love.in.a.Puff.2010-2017.BluRay.1080p.2Audio.TrueHD.7.1.x265.10bit-ALT 37

2022年04月10日 20:51:41     电影发布:来源于网络     电影分类:港台电影     评论(0)    

志明与春娇[共3部合集][国粤英多音轨/简繁英字幕].Love.in.a.Puff.2010 2017.BluRay.1080p.2Audio.TrueHD.7.1.x265.10bit ALT 37 爱情 喜剧 剧情 港台电影  第1张

◎译 名 志明与春娇 / 谈恋爱 / Love in a Puff

◎片 名 志明與春嬌

◎年 代 2010

◎产 地 中国香港

◎类 别 剧情 / 喜剧 / 爱情

◎语 言 粤语

◎上映日期 2010-06-18(中国大陆) / 2010-03-25(中国香港)

◎IMDb链接 https://www.imdb.com/title/tt1602479/

◎豆瓣评分 7.9/10 (464414人评价)

◎豆瓣链接 https://movie.douban.com/subject/4305436/

◎片 长 104分钟(香港)

◎导 演 彭浩翔 Ho-Cheung Pang (id:1000148)

◎编 剧 麦曦茵 Heiward Mak (id:1274609)

彭浩翔 Ho-Cheung Pang (id:1000148)

◎演 员 杨千嬅 Miriam Yeung (id:1173971)

余文乐 Shawn Yue (id:1041510)

黄德斌 Tak-bun Wong (id:1274442)

陈逸宁 Yat Ning Chan (id:1038570)

谷祖琳 Jolane Koo (id:1045825)

司徒慧焯 Roy Szeto (id:1298762)

谷德昭 Vincent Kok (id:1025526)

张达明 Tat-Ming Cheung (id:1274433)

方皓玟 Charmaine Fong (id:1319116)

林兆霞 June Lam (id:1319764)

关逸基 Clifton Kwan (id:1385418)

林耀声 Yiu-Sing Lam (id:1316133)

缪非临 Fei-Lam Miu (id:1317576)

辛格·哈提汗·比托 Singh Hartihan Bitto (id:1333958)

陆诗韵 Sharon Luk (id:1337532)

徐天佑 Tien You Chui (id:1197244)

邹凯光 Matt Chow (id:1275121)

王宗尧 Gregory Wong (id:1275652)

朱慧敏 Queenie Chu (id:1275992)

刘伟恒 Wai-Hang Lau (id:1354380)

筱靖 Manecy Chen (id:1385423)

骆应钧 Ying Kwan Lok (id:1274577)

黄颖君 Burmie Wong (id:1404080)

何丽嫦 Lorraine Ho (id:1418364)

彭浩翔 Ho-Cheung Pang (id:1000148)

黄艾伦 Alan Wong (id:1318832)

翁玮盈 Janet Yung (id:1316419)

关智耀 Jason Kwan Chi-Yiu (id:1318237)

李栋全 Wenders Li (id:1275162)

文念中 Lim Chung Man (id:1275158)

钟楚婷 Cho Ting Chung (id:1325299)

汤湘竹 Shiang-Chu Tang (id:1298902)

杜笃之 Du-Che Tu (id:1275159)

◎简 介

一纸戒烟令让狭窄的后巷成为新型社交区域,无数抽数的男男女女不得不躲进那里抽烟。无论身居何位,所为何事,在那里他们都只是一个烟民,大家所做的无非是一起吞云吐雾、一起科插打诨。来自广告公司的志明(余文乐 饰)和在化妆品专柜工作的春娇(杨千嬅 饰)在那里相识,志明的不幸遭遇以及为春娇点烟的举动让春娇对这个斯文的男人略生好感。在接下来的几个日日夜夜,两人不时的传送短信和相约街角吸烟。感情通过拇指传送,爱情在烟雾之中滋生,最终一条暧昧的短信导致春娇和男友家豪(黄德斌 饰)分手。就当春娇准备全身心投入与志明的恋情时,志明的态度却变得含混不清。烟雾继续在街角后巷萦绕,但却不能弥合二人之间出现的隔阂。伴随着增加烟草税的决意颁发,广大烟民们开始搜寻和囤积香烟。在寻烟过程中,志明和春娇在他们第一次遇见的便利商店重逢,这晚,两人相约一起去找烟……

本片在五个星期15个拍摄...

◎获奖情况 (共9项)

第47届台北金马影展 (2010)

金马奖 最佳造型设计(提名)

第30届香港电影金像奖 (2011)

最佳编剧

最佳女主角(提名)

└──杨千嬅 (id:1173971)

第5届亚洲电影大奖 (2011)

最佳编剧(提名)

第11届华语电影传媒大奖 (2011)

观众票选最受瞩目女演员

└──杨千嬅 (id:1173971)

最佳电影(提名)

最佳导演(提名)

└──彭浩翔 (id:1000148)

最佳编剧(提名)

第1届豆瓣电影鑫像奖 (2011)

鑫豆单元 最佳女演员(华语)

└──杨千嬅 (id:1173971)

  1. 合集文件列表:

  2. 1.Love.in.a.Puff.2010.BluRay.1080p.2Audio.DTS-HD.MA7.1.x265.10bit-ALT.mkv 6.43GB

  3. 2.Love.In.The.Buff.2012.BluRay.1080p.2Audio.TrueHD.7.1.x265.10bit-ALT.mkv 10.68GB

  4. 3.Love.Off.the.Cuff.2017.BluRay.1080p.2Audio.TrueHD.7.1.x265.10bit-ALT.mkv 20.15GB


复制代码

  1. ##### MediaInfo ######

  2. General

  3. Unique ID : 136109557186603063153015349644107492470 (0x6665BF47DCFFAC02DCA947E66398AC76)

  4. Complete name : Love.in.a.Puff.2010.BluRay.1080p.2Audio.DTS-HD.MA7.1.x265.10bit-BeiTai.mkv

  5. Format : Matroska

  6. Format version : Version 4

  7. File size : 6.43 GiB

  8. Duration : 1 h 42 min

  9. Overall bit rate mode : Variable

  10. Overall bit rate : 8 956 kb/s

  11. Encoded date : UTC 2019-12-03 03:19:14

  12. Writing application : mkvmerge v40.0.0 ('Old Town Road + Pony') 64-bit

  13. Writing library : libebml v1.3.9 + libmatroska v1.5.2

  14. Video

  15. ID : 1

  16. Format : HEVC

  17. Format/Info : High Efficiency Video Coding

  18. Format profile : Main [email protected]@High

  19. HDR format : SMPTE ST 2086

  20. Codec ID : V_MPEGH/ISO/HEVC

  21. Duration : 1 h 42 min

  22. Bit rate : 5 322 kb/s

  23. Width : 1 920 pixels

  24. Height : 816 pixels

  25. Display aspect ratio : 2.35:1

  26. Frame rate mode : Constant

  27. Frame rate : 24.000 FPS

  28. Color space : YUV

  29. Chroma subsampling : 4:2:0

  30. Bit depth : 10 bits

  31. Bits/(Pixel*Frame) : 0.142

  32. Stream size : 3.82 GiB (59%)

  33. Title : HEVC, [email protected]@High, 24 fps @ 5322 kbps

  34. Writing library : x265 3.0_Au+4-dcbec33bfb0f:[Windows][GCC 8.2.1][64 bit] 10bit

  35. Encoding settings : cpuid=533541111039 / frame-threads=5 / numa-pools=44,44 / wpp / pmode / pme / no-psnr / no-ssim / log-level=2 / input-csp=1 / input-res=1920x816 / interlace=0 / total-frames=148032 / level-idc=51 / high-tier=1 / uhd-bd=0 / ref=5 / no-allow-non-conformance / repeat-headers / annexb / no-aud / no-hrd / info / hash=0 / no-temporal-layers / no-open-gop / min-keyint=24 / keyint=240 / gop-lookahead=0 / bframes=6 / b-adapt=2 / b-pyramid / bframe-bias=0 / rc-lookahead=40 / lookahead-slices=0 / NTMzNTQ=uuDQuD2mJt9fsCf / scenecut=40 / radl=0 / no-splice / no-intra-refresh / ctu=32 / min-cu-size=8 / no-rect / no-amp / max-tu-size=32 / tu-inter-depth=3 / tu-intra-depth=3 / limit-tu=4 / rdoq-level=2 / dynamic-rd=0.00 / no-ssim-rd / signhide / no-tskip / nr-intra=0 / nr-inter=0 / no-constrained-intra / no-strong-intra-smoothing / max-merge=4 / limit-refs=1 / limit-modes / me=3 / subme=4 / merange=25 / temporal-mvp / weightp / weightb / no-analyze-src-pics / deblock=-3:-3 / no-sao / no-sao-non-deblock / rd=6 / no-early-skip / rskip / no-fast-intra / no-tskip-fast / no-cu-lossless / b-intra / no-splitrd-skip / rdpenalty=0 / psy-rd=2.00 / psy-rdoq=1.00 / no-rd-refine / no-lossless / cbqpoffs=0 / crqpoffs=0 / rc=crf / crf=17.0 / qcomp=0.65 / qpstep=4 / stats-write=0 / stats-read=0 / vbv-maxrate=80000 / vbv-bufsize=80000 / vbv-init=0.9 / crf-max=0.0 / crf-min=0.0 / ipratio=1.40 / pbratio=1.30 / aq-mode=2 / aq-strength=0.85 / cutree / zone-count=0 / no-strict-cbr / qg-size=32 / no-rc-grain / qpmax=69 / qpmin=0 / no-const-vbv / sar=1 / overscan=0 / videoformat=5 / range=0 / colorprim=1 / transfer=1 / colormatrix=1 / chromaloc=0 / display-window=0 / master-display=G(15000,30000)B(7500,3000)R(32000,16500)WP(15635,16450)L(10000000,1) / max-cll=1000,1 / min-luma=0 / max-luma=1023 / log2-max-poc-lsb=8 / vui-timing-info / vui-hrd-info / slices=1 / no-opt-qp-pps / no-opt-ref-list-length-pps / no-multi-pass-opt-rps / scenecut-bias=0.05 / no-opt-cu-delta-qp / no-aq-motion / hdr / no-hdr-opt / no-dhdr10-opt / no-idr-recovery-sei / analysis-reuse-level=5 / scale-factor=0 / refine-intra=0 / refine-inter=0 / refine-mv=0 / refine-ctu-distortion=0 / no-limit-sao / ctu-info=0 / no-lowpass-dct / refine-analysis-type=0 / copy-pic=1 / max-ausize-factor=1.0 / no-dynamic-refine / no-single-sei / no-hevc-aq / qp-adaptation-range=1.00

  36. Language : English

  37. Default : Yes

  38. Forced : No

  39. Color range : Limited

  40. Color primaries : BT.709

  41. Transfer characteristics : BT.709

  42. Matrix coefficients : BT.709

  43. Mastering display color primaries : BT.709

  44. Mastering display luminance : min: 0.0001 cd/m2, max: 1000 cd/m2

  45. Maximum Content Light Level : 1000 cd/m2

  46. Maximum Frame-Average Light Level : 1 cd/m2

  47. Audio #1

  48. ID : 2

  49. Format : DTS XLL

  50. Format/Info : Digital Theater Systems

  51. Commercial name : DTS-HD Master Audio

  52. Codec ID : A_DTS

  53. Duration : 1 h 42 min

  54. Bit rate mode : Variable

  55. Bit rate : 2 672 kb/s

  56. Channel(s) : 8 channels

  57. Channel layout : C L R LFE Lb Rb Lss Rss

  58. Sampling rate : 48.0 kHz

  59. Frame rate : 93.750 FPS (512 SPF)

  60. Bit depth : 16 bits

  61. Compression mode : Lossless

  62. Stream size : 1.92 GiB (30%)

  63. Title : Cantonese DTS-HD Master Audio 7.1 @ 2672 kbps

  64. Language : Chinese

  65. Default : Yes

  66. Forced : No

  67. Audio #2

  68. ID : 3

  69. Format : AC-3

  70. Format/Info : Audio Coding 3

  71. Commercial name : Dolby Digital

  72. Codec ID : A_AC3

  73. Duration : 1 h 42 min

  74. Bit rate mode : Constant

  75. Bit rate : 640 kb/s

  76. Channel(s) : 6 channels

  77. Channel layout : L R C LFE Ls Rs

  78. Sampling rate : 48.0 kHz

  79. Frame rate : 31.250 FPS (1536 SPF)

  80. Compression mode : Lossy

  81. Stream size : 471 MiB (7%)

  82. Title : Mandarin Dolby Digital Audio 5.1 @ 640 kbps

  83. Language : Chinese

  84. Service kind : Complete Main

  85. Default : No

  86. Forced : No

  87. Audio #3

  88. ID : 4

  89. Format : AC-3

  90. Format/Info : Audio Coding 3

  91. Commercial name : Dolby Digital

  92. Codec ID : A_AC3

  93. Duration : 1 h 42 min

  94. Bit rate mode : Constant

  95. Bit rate : 192 kb/s

  96. Channel(s) : 2 channels

  97. Channel layout : L R

  98. Sampling rate : 48.0 kHz

  99. Frame rate : 31.250 FPS (1536 SPF)

  100. Compression mode : Lossy

  101. Stream size : 141 MiB (2%)

  102. Title : Cantonese Dolby Digital Audio 2.0 @ 192 kbps Commentary

  103. Language : Chinese

  104. Service kind : Complete Main

  105. Default : No

  106. Forced : No

  107. Text #1

  108. ID : 5

  109. Format : PGS

  110. Codec ID : S_HDMV/PGS

  111. Codec ID/Info : Picture based subtitle format used on BDs/HD-DVDs

  112. Duration : 1 h 41 min

  113. Bit rate : 45.9 kb/s

  114. Count of elements : 3122

  115. Stream size : 33.5 MiB (1%)

  116. Title : Cht/SUP 原盘繁体

  117. Language : Chinese

  118. Default : No

  119. Forced : No

  120. Text #2

  121. ID : 6

  122. Format : PGS

  123. Codec ID : S_HDMV/PGS

  124. Codec ID/Info : Picture based subtitle format used on BDs/HD-DVDs

  125. Duration : 1 h 41 min

  126. Bit rate : 41.6 kb/s

  127. Count of elements : 3122

  128. Stream size : 30.3 MiB (0%)

  129. Title : Chs/SUP 原盘简体

  130. Language : Chinese

  131. Default : Yes

  132. Forced : No

  133. Text #3

  134. ID : 7

  135. Format : PGS

  136. Codec ID : S_HDMV/PGS

  137. Codec ID/Info : Picture based subtitle format used on BDs/HD-DVDs

  138. Duration : 1 h 41 min

  139. Bit rate : 38.5 kb/s

  140. Count of elements : 3122

  141. Stream size : 28.1 MiB (0%)

  142. Title : Eng/SUP

  143. Language : English

  144. Default : No

  145. Forced : No

  146. Menu

  147. 00:00:00.000 : en:第 01 章

  148. 00:05:35.042 : en:第 02 章

  149. 00:15:02.792 : en:第 03 章

  150. 00:17:28.333 : en:第 04 章

  151. 00:22:52.458 : en:第 05 章

  152. 00:25:31.583 : en:第 06 章

  153. 00:32:12.375 : en:第 07 章

  154. 00:38:37.250 : en:第 08 章

  155. 00:42:23.625 : en:第 09 章

  156. 00:48:35.208 : en:第 10 章

  157. 00:53:49.208 : en:第 11 章

  158. 01:01:51.458 : en:第 12 章

  159. 01:04:43.667 : en:第 13 章

  160. 01:08:35.833 : en:第 14 章

  161. 01:12:55.250 : en:第 15 章

  162. 01:19:31.208 : en:第 16 章

  163. 01:25:22.958 : en:第 17 章

  164. 01:29:37.042 : en:第 18 章

  165. 01:34:32.292 : en:第 19 章

  166. 01:38:22.958 : en:第 20 章


复制代码



文件下载


除非特别注明,本文『志明与春娇[共3部合集][国粤英多音轨/简繁英字幕].Love.in.a.Puff.2010-2017.BluRay.1080p.2Audio.TrueHD.7.1.x265.10bit-ALT 37』来源于互联网机器人自动抓取,非本站原创。 浮游电影网不对本文拥有版权,如有侵犯,请联系邮箱:fuyouu#yandex.com[#换成@]投诉。我们会在15个工作日内删除。 但烦请转载时请标明出处:“本文转载于『浮游电影网』,原文地址:https://www.fuyouu.com/21228.html

评论吧骚年!

发表你的见解   

昵称*

E-mail*(建议输入,以便收到博主回复的提示邮件)

验证码*

您可以使用eMule或eMule Mod(Windows)、aMule(Win、Linux、Mac)等软件下载eD2k链接。。
eMule收藏集(.emulecollection)文件是您选中的所有链接的列表文件。eMule可以直接下载它们。
按住SHIFT键选择可以选中多个选择框。
可用文件名和大小选择器来选择文件。
文件名选择器帮您根据文件名称或后缀来选择文件。不分大小写。
符号使用:
和:空格( )、+
不包含:-
或:|
转义:一对英文引号("");
匹配开头:^
匹配结尾:$
例如:
选中所有名称中包含有“eMule”或“0.49c”字眼,但不包含有“exe”字眼的:emule|0.49c -exe
选中所有名称的开头是“eMule”,结尾是“0.49c”的:^emule 0.49c$
选中所有名称中带有“eMule 0.49c”的(必须是“eMule 0.49c”,中间没有别的字符,不能是“eMule fake 0.49c”),需要转义:"emule 0.49c"
大小选择器帮您根据文件大小选择文件。