当前位置: 首页 >> 港台电影 >> 省港旗兵[共2部合集][国粤英多音轨/繁英字幕].Long.Arm.of.the.Law.1-2.1984-1987.PROPER.BluRay.1080p.2Audio.TrueHD.7.1.x26 >> 正文

省港旗兵[共2部合集][国粤英多音轨/繁英字幕].Long.Arm.of.the.Law.1-2.1984-1987.PROPER.BluRay.1080p.2Audio.TrueHD.7.1.x26

2022年04月10日 20:49:21     电影发布:来源于网络     电影分类:港台电影     评论(0)    

省港旗兵[共2部合集][国粤英多音轨/繁英字幕].Long.Arm.of.the.Law.1 2.1984 1987.PROPER.BluRay.1080p.2Audio.TrueHD.7.1.x26 犯罪 动作 港台电影  第1张

◎译 名 省港旗兵 / Long Arm Of The Law

◎年 代 1984

◎产 地 中国香港

◎类 别 动作 / 犯罪

◎语 言 粤语 / 英语 / 汉语普通话

◎上映日期 1984-07-11

◎IMDb链接 https://www.imdb.com/title/tt0088107/

◎豆瓣评分 7.9/10 (15693人评价)

◎豆瓣链接 https://movie.douban.com/subject/1292846/

◎片 长 100分钟(DVD版)

◎导 演 麦当雄 Johnny Mak (id:1290775)

◎编 剧 陈欣健 Philip Chan (id:1007245)

◎演 员 陈敬 Jing Chen (id:1317766)

江龙 Long Jiang (id:1319652)

林国斌 Ben Lam (id:1289293)

林威 Wai Lam (id:1289306)

沈威 Wai Shum (id:1297537)

黄光亮 Kwong Leung Wong (id:1301194)

徐建华 Chui Kin-Wa (id:1434304)

黄健 Kin Wong (id:1415913)

李英杰 Ying Kit Lee (id:1412104)

吴海添 Ng Hoi-Tin (id:1369885)

(id:1369882)

蓝湘森 Seung Sam Lam (id:1369883)

杨鸣 Ming Yeung (id:1369884)

洪金宝 Sammo Hung Kam-Bo (id:1055887)

陈佩华 Jessica Chan Pooi-Wa (id:1372898)

麦当雄 Johnny Mak (id:1290775)

黄少雄 David Wong (id:1431239)

林慕德 Mahmood Rumajahn (id:1296324)

古国华 Johnny Koo (id:1330744)

Kwok Wah Koo Kwok Wah Koo (id:1288884)

张耀宗 Peter Cheung (id:1280650)

黄仁逵 Yank Wong (id:1301211)

陈会毅 Billy Chan (id:1280414)

周少龙 Shao Lung Chou (id:1344862)

洪金宝 Sammo Hung Kam-Bo (id:1055887)

◎简 介

何耀东(林威 饰)是文革后偷渡香港的新移民,在港期间他犯下多宗刑事案件,为全港警方所通缉。大东返回大陆,召集打靶仔(蓝湘森 饰)、乌蝇头(方烈 饰)、八中(江龙 饰)、生鸡(陈敬 饰)、肥姑(黄健 饰)等一干穷哥们,商议赴港抢劫银楼。然而他们出师不利,打靶仔在穿越边境时 被巡逻兵击毙。余下五人按原计划行事,到达目的地时却发现银楼铁门关闭。原来此前早有一独行大盗光顾此地,被警方现场拿下。大东等人心存不甘,驱车在周围逡巡,引起警方察觉。

一番激烈追逐,大东等方脱离险境。为了一夜暴富的梦想,他们决定继续留港,伺机行动,却因此走上一条不归途……

◎获奖情况 (共14项)

第21届台北金马影展 (1984)

金马奖 最佳剧情片(提名)

金马奖 最佳导演

└──麦当雄 (id:1290775)

金马奖 最佳原著剧本(提名)

└──陈欣健 (id:1007245)

金马奖 最佳摄影(提名)

└──古国华 (id:1330744)

金马奖 最佳剪辑

└──张耀宗 (id:1280650)

第4届香港电影金像奖 (1985)

最佳电影(提名)

最佳导演(提名)

└──麦当雄 (id:1290775)

最佳编剧(提名)

└──陈欣健 (id:1007245)

最佳男配角

└──沈威 (id:1297537)

最佳新演员(提名)

└──林威 (id:1289306)

最佳摄影(提名)

└──古国华 (id:1330744)

最佳剪接

└──张耀宗 (id:1280650)

最佳服装造型设计(提名)

└──陈会毅 (id:1280414)

最佳原创电影音乐(提名)

└──林慕德 (id:1296324)

  1. 合集文件列表:

  2. 1.Long.Arm.of.the.Law.1.1984.PROPER.BluRay.1080p.2Audio.TrueHD.7.1.x265.10bit-ALT.mkv 9.39GB

  3. 2.Long.Arm.of.the.Law.2.1987.BluRay.1080p.2Audio.DTS-HDMA.7.1.x265.10bit-ALT.mkv 11.77GB


复制代码

  1. ##### MediaInfo ######

  2. General

  3. Unique ID : 36556528309425181626454524121864241614 (0x1B80880038FA6B40DA21369DE43881CE)

  4. Complete name : Long.Arm.of.the.Law.1.1984.PROPER.BluRay.1080p.2Audio.TrueHD.7.1.x265.10bit-BeiTai.mkv

  5. Format : Matroska

  6. Format version : Version 4

  7. File size : 9.39 GiB

  8. Duration : 1 h 45 min

  9. Overall bit rate mode : Variable

  10. Overall bit rate : 12.7 Mb/s

  11. Encoded date : UTC 2020-08-12 00:33:41

  12. Writing application : mkvmerge v49.0.0 ('Sick Of Losing Soulmates') 64-bit

  13. Writing library : libebml v1.4.0 + libmatroska v1.6.1

  14. Video

  15. ID : 1

  16. Format : HEVC

  17. Format/Info : High Efficiency Video Coding

  18. Format profile : Main [email protected]@High

  19. Codec ID : V_MPEGH/ISO/HEVC

  20. Duration : 1 h 45 min

  21. Bit rate : 7 933 kb/s

  22. Width : 1 920 pixels

  23. Height : 1 018 pixels

  24. Display aspect ratio : 1.886

  25. Frame rate mode : Constant

  26. Frame rate : 23.976 (24000/1001/53354) FPS

  27. Color space : YUV

  28. Chroma subsampling : 4:2:0

  29. Bit depth : 10 bits

  30. Bits/(Pixel*Frame) : 0.169

  31. Stream size : 5.85 GiB (62%)

  32. Title : HEVC, [email protected]@High, 24/1.001 fps @ 7933 kbps

  33. Writing library : x265 3.3+1-g396395b2b:[Windows][GCC 9.2.0][64 bit] 10bit

  34. Encoding settings : cpuid=533541111039 / frame-threads=5 / numa-pools=44,44 / wpp / pmode / pme / no-psnr / no-ssim / log-level=2 / input-csp=1 / input-res=1920x1018 / interlace=0 / total-frames=151807 / level-idc=51 / high-tier=1 / uhd-bd=0 / ref=5 / no-allow-non-conformance / no-repeat-headers / annexb / no-aud / no-hrd / info / hash=0 / no-temporal-layers / open-gop / min-keyint=24 / keyint=240 / gop-lookahead=0 / bframes=6 / b-adapt=2 / b-pyramid / bframe-bias=0 / rc-lookahead=40 / lookahead-slices=0 / NTMzNTQ=uuDQuD2mJt9fsCf / scenecut=40 / hist-scenecut=0 / radl=0 / no-splice / no-intra-refresh / ctu=32 / min-cu-size=8 / no-rect / no-amp / max-tu-size=32 / tu-inter-depth=3 / tu-intra-depth=3 / limit-tu=4 / rdoq-level=2 / dynamic-rd=0.00 / no-ssim-rd / signhide / no-tskip / nr-intra=0 / nr-inter=0 / no-constrained-intra / no-strong-intra-smoothing / max-merge=4 / limit-refs=1 / limit-modes / me=3 / subme=4 / merange=25 / temporal-mvp / no-frame-dup / no-hme / weightp / weightb / no-analyze-src-pics / deblock=-3:-3 / no-sao / no-sao-non-deblock / rd=6 / selective-sao=0 / no-early-skip / rskip / no-fast-intra / no-tskip-fast / no-cu-lossless / b-intra / no-splitrd-skip / rdpenalty=0 / psy-rd=2.00 / psy-rdoq=1.00 / no-rd-refine / no-lossless / cbqpoffs=0 / crqpoffs=0 / rc=crf / crf=17.0 / qcomp=0.65 / qpstep=4 / stats-write=0 / stats-read=0 / vbv-maxrate=80000 / vbv-bufsize=80000 / vbv-init=0.9 / crf-max=0.0 / crf-min=0.0 / ipratio=1.40 / pbratio=1.30 / aq-mode=2 / aq-strength=0.85 / cutree / zone-count=0 / no-strict-cbr / qg-size=32 / no-rc-grain / qpmax=69 / qpmin=0 / no-const-vbv / sar=1 / overscan=0 / videoformat=5 / range=0 / colorprim=1 / transfer=1 / colormatrix=1 / chromaloc=0 / display-window=0 / cll=0,0 / min-luma=0 / max-luma=1023 / log2-max-poc-lsb=8 / vui-timing-info / vui-hrd-info / slices=1 / no-opt-qp-pps / no-opt-ref-list-length-pps / no-multi-pass-opt-rps / scenecut-bias=0.05 / hist-threshold=0.01 / no-opt-cu-delta-qp / no-aq-motion / no-hdr10 / no-hdr10-opt / no-dhdr10-opt / no-idr-recovery-sei / analysis-reuse-level=0 / analysis-save-reuse-level=0 / analysis-load-reuse-level=0 / scale-factor=0 / refine-intra=0 / refine-inter=0 / refine-mv=1 / refine-ctu-distortion=0 / no-limit-sao / ctu-info=0 / no-lowpass-dct / refine-analysis-type=0 / copy-pic=1 / max-ausize-factor=1.0 / no-dynamic-refine / no-single-sei / no-hevc-aq / no-svt / no-field / qp-adaptation-range=1.00 / no-scenecut-aware-qpconformance-window-offsets / right=0 / bottom=0 / NTMzNTQ=

  35. Language : English

  36. Default : Yes

  37. Forced : No

  38. Color range : Limited

  39. Color primaries : BT.709

  40. Transfer characteristics : BT.709

  41. Matrix coefficients : BT.709

  42. Audio #1

  43. ID : 2

  44. Format : MLP FBA

  45. Format/Info : Meridian Lossless Packing FBA

  46. Commercial name : Dolby TrueHD

  47. Codec ID : A_TRUEHD

  48. Duration : 1 h 45 min

  49. Bit rate mode : Variable

  50. Bit rate : 3 404 kb/s

  51. Maximum bit rate : 5 592 kb/s

  52. Channel(s) : 8 channels

  53. Channel layout : L R C LFE Ls Rs Lb Rb

  54. Sampling rate : 48.0 kHz

  55. Frame rate : 1 200.000 FPS (40 SPF)

  56. Compression mode : Lossless

  57. Stream size : 2.51 GiB (27%)

  58. Title : Cantonese Dolby TrueHD 7.1 @ 3383 kbps

  59. Language : Chinese

  60. Default : Yes

  61. Forced : No

  62. Audio #2

  63. ID : 3

  64. Format : AC-3

  65. Format/Info : Audio Coding 3

  66. Commercial name : Dolby Digital

  67. Codec ID : A_AC3

  68. Duration : 1 h 45 min

  69. Bit rate mode : Constant

  70. Bit rate : 640 kb/s

  71. Channel(s) : 6 channels

  72. Channel layout : L R C LFE Ls Rs

  73. Sampling rate : 48.0 kHz

  74. Frame rate : 31.250 FPS (1536 SPF)

  75. Compression mode : Lossy

  76. Stream size : 482 MiB (5%)

  77. Title : Cantonese AC3 5.1-EX @ 640 kbps

  78. Language : Chinese

  79. Service kind : Complete Main

  80. Default : No

  81. Forced : No

  82. Audio #3

  83. ID : 4

  84. Format : AC-3

  85. Format/Info : Audio Coding 3

  86. Commercial name : Dolby Digital

  87. Codec ID : A_AC3

  88. Duration : 1 h 45 min

  89. Bit rate mode : Constant

  90. Bit rate : 640 kb/s

  91. Channel(s) : 6 channels

  92. Channel layout : L R C LFE Ls Rs

  93. Sampling rate : 48.0 kHz

  94. Frame rate : 31.250 FPS (1536 SPF)

  95. Compression mode : Lossy

  96. Stream size : 482 MiB (5%)

  97. Title : Mandarin AC3 5.1-EX @ 640 kbps

  98. Language : Chinese

  99. Service kind : Complete Main

  100. Default : No

  101. Forced : No

  102. Text #1

  103. ID : 5

  104. Format : PGS

  105. Codec ID : S_HDMV/PGS

  106. Codec ID/Info : Picture based subtitle format used on BDs/HD-DVDs

  107. Duration : 1 h 39 min

  108. Bit rate : 36.0 kb/s

  109. Count of elements : 2088

  110. Stream size : 25.6 MiB (0%)

  111. Title : Cht/SUP 原盘繁体

  112. Language : Chinese

  113. Default : Yes

  114. Forced : No

  115. Text #2

  116. ID : 6

  117. Format : PGS

  118. Codec ID : S_HDMV/PGS

  119. Codec ID/Info : Picture based subtitle format used on BDs/HD-DVDs

  120. Duration : 1 h 39 min

  121. Bit rate : 23.0 kb/s

  122. Count of elements : 2088

  123. Stream size : 16.4 MiB (0%)

  124. Title : Eng/SUP

  125. Language : English

  126. Default : No

  127. Forced : No

  128. Menu

  129. 00:00:00.000 : en:第 01 章

  130. 00:04:47.954 : en:第 02 章

  131. 00:10:05.480 : en:第 03 章

  132. 00:15:47.071 : en:第 04 章

  133. 00:20:35.901 : en:第 05 章

  134. 00:26:15.908 : en:第 06 章

  135. 00:32:25.402 : en:第 07 章

  136. 00:39:23.111 : en:第 08 章

  137. 00:45:39.612 : en:第 09 章

  138. 00:51:49.231 : en:第 10 章

  139. 00:55:33.622 : en:第 11 章

  140. 01:00:45.100 : en:第 12 章

  141. 01:06:43.291 : en:第 13 章

  142. 01:11:04.677 : en:第 14 章

  143. 01:16:13.402 : en:第 15 章

  144. 01:20:47.009 : en:第 16 章

  145. 01:26:03.408 : en:第 17 章

  146. 01:31:23.061 : en:第 18 章

  147. 01:36:29.993 : en:第 19 章

  148. 01:40:54.382 : en:第 20 章


复制代码



文件下载


除非特别注明,本文『省港旗兵[共2部合集][国粤英多音轨/繁英字幕].Long.Arm.of.the.Law.1-2.1984-1987.PROPER.BluRay.1080p.2Audio.TrueHD.7.1.x26』来源于互联网机器人自动抓取,非本站原创。 浮游电影网不对本文拥有版权,如有侵犯,请联系邮箱:fuyouu#yandex.com[#换成@]投诉。我们会在15个工作日内删除。 但烦请转载时请标明出处:“本文转载于『浮游电影网』,原文地址:https://www.fuyouu.com/21226.html

评论吧骚年!

发表你的见解   

昵称*

E-mail*(建议输入,以便收到博主回复的提示邮件)

验证码*

您可以使用eMule或eMule Mod(Windows)、aMule(Win、Linux、Mac)等软件下载eD2k链接。。
eMule收藏集(.emulecollection)文件是您选中的所有链接的列表文件。eMule可以直接下载它们。
按住SHIFT键选择可以选中多个选择框。
可用文件名和大小选择器来选择文件。
文件名选择器帮您根据文件名称或后缀来选择文件。不分大小写。
符号使用:
和:空格( )、+
不包含:-
或:|
转义:一对英文引号("");
匹配开头:^
匹配结尾:$
例如:
选中所有名称中包含有“eMule”或“0.49c”字眼,但不包含有“exe”字眼的:emule|0.49c -exe
选中所有名称的开头是“eMule”,结尾是“0.49c”的:^emule 0.49c$
选中所有名称中带有“eMule 0.49c”的(必须是“eMule 0.49c”,中间没有别的字符,不能是“eMule fake 0.49c”),需要转义:"emule 0.49c"
大小选择器帮您根据文件大小选择文件。