当前位置: 首页 >> 日韩电影 >> 带子雄狼[共6部合集][简繁英字幕].Lone.Wolf.and.Cub.1972-1974.CC.BluRay.1080p.DTS-HD.MA.1.0.x265.10bit-ALT 43.53GB >> 正文

带子雄狼[共6部合集][简繁英字幕].Lone.Wolf.and.Cub.1972-1974.CC.BluRay.1080p.DTS-HD.MA.1.0.x265.10bit-ALT 43.53GB

2022年04月10日 20:48:16     电影发布:来源于网络     电影分类:日韩电影     评论(0)    

带子雄狼[共6部合集][简繁英字幕].Lone.Wolf.and.Cub.1972 1974.CC.BluRay.1080p.DTS HD.MA.1.0.x265.10bit ALT 43.53GB 动作 剧情 日韩电影  第1张

◎译 名 带子雄狼:出租孩子与武艺 / Kozure ?kami: Kowokashi udekashi tsukamatsuru / Lone Wolf and Cub: Child and Expertise for Rent / Lone Wolf and Cub: Sword of Vengeance / Sword of Vengeance I / Okami - Das Schwert der Rache / Baby Cart: le sabre de la vengeance / 带子雄狼:决战柳生 / 带子雄狼:出租小孩和武艺 / 带子雄狼 出租孩子与武艺

◎片 名 子連れ狼 子を貸し腕貸しつかまつる

◎年 代 1972

◎产 地 日本

◎类 别 剧情 / 动作

◎语 言 日语

◎上映日期 1972-01-15(日本)

◎IMDb链接 https://www.imdb.com/title/tt0068815/

◎豆瓣评分 7.9/10 (1789人评价)

◎豆瓣链接 https://movie.douban.com/subject/1308595/

◎片 长 84分钟

◎导 演 三隅研次 Kenji Misumi (id:1032944)

◎编 剧 小池一夫 Kazuo Koike (id:1046204)

小岛刚夕 Goseki Kojima (id:1044243)

◎演 员 若山富三郎 Tomisaburo Wakayama (id:1050454)

渡边文雄 Fumio Watanabe (id:1042802)

加藤刚 Go Kato (id:1006454)

真山知子 Tomoko Mayama (id:1326106)

浜木绵子 Y?ko Hama (id:1371087)

露口茂 Shigeru Tsuyuguchi (id:1003869)

内田朝雄 Asao Uchida (id:1024870)

内藤武敏 Taketoshi Nait? (id:1020944)

加藤嘉 Yoshi Kat? (id:1107157)

藤田佳子 Keiko Fujita (id:1402062)

山形勋 Isao Yamagata (id:1025748)

笠原玲子 Reiko Kasahara (id:1011485)

水岛道太郎 Michitaro Mizushima (id:1007473)

富川晶宏 Akihiro Tomikawa (id:1361245)

草野大悟 Daigo Kusano (id:1053641)

伊达三郎 Saburo Date (id:1003912)

长谷川弘 Hiroshi Hasegawa (id:1015610)

堀北幸夫 Yukio Horikita (id:1403041)

冲时男 Tokio Oki (id:1403052)

岩田正 Tadashi Iwata (id:1403049)

藤川准 Jun Fujikawa (id:1403048)

石原须磨男 Sumao Ishihara (id:1403038)

伊藤雄之助 Y?nosuke It? (id:1025631)

关山耕司 Koji Sekiyama (id:1021586)

胜新太郎 Shintar? Katsu (id:1036986)

谷口登司夫 Toshio Taniguchi (id:1298910)

内藤昭 Akira Nait? (id:1292884)

◎简 介

幕府时代,公仪介错人(为剖腹者斩首的刽子手)拜一刀(若山富三郎 饰)执行上层命令,为年幼的地方领主斩首。归来后梦见妻女被人所杀,心生不祥预感。柳生手下拜访拜一刀,看见堂中为断头者摆放的灵位,遂以谋反罪名密告柳生家族。

得悉阴谋的拜一刀手斩来使,带着独子大五郎(富川晶宏 饰)杀出重围。从此浪迹江湖,以赏金杀手为生,人称“带子雄狼”。

这一日,拜一刀接到新的任务,小山田藩杉户家老谋划暗杀领主子嗣,得知消息的家老市毛请求拜一刀破坏刺杀计划。拜一刀和大五郎来至峡谷温泉场,等待猎物出现……

  1. 合集文件列表:

  2. 1.Lone.Wolf.and.Cub.1.Sword.of.Vengeance.1972.BluRay.1080p.DTS-HD.MA.1.0.x265.10bit-ALT.mkv 9.23GB

  3. 2.Lone.Wolf.and.Cub.2.Baby.Cart.at.the.River.Styx.1972.BluRay.1080p.DTS-HD.MA.1.0.x265.10bit-ALT.mkv 10.36GB

  4. 3.Lone.Wolf.and.Cub.3.Baby.Cart.to.Hades.1972.BluRay.1080p.DTS-HD.MA.1.0.x265.10bit-ALT.mkv 7.15GB

  5. 4.Lone.Wolf.and.Cub.4.Baby.Cart.in.Peril.1972.BluRay.1080p.DTS-HD.MA.1.0.x265.10bit-ALT.mkv 5.57GB

  6. 5.Lone.Wolf.and.Cub.5.Baby.Cart.in.the.Land.of.Demons.1973.BluRay.1080p.DTS-HD.MA.1.0.x265.10bit-ALT.mkv 4.90GB

  7. 6.Lone.Wolf.and.Cub.6.White.Heaven.in.Hell.1974.BluRay.1080p.DTS-HD.MA.1.0.x265.10bit-ALT.mkv 6.32GB


复制代码

  1. ##### MediaInfo ######

  2. General

  3. Unique ID : 86554353098128076842001772801172583221 (0x411DC3155F78A19CE748DF24A68E3335)

  4. Complete name : Lone.Wolf.and.Cub.1.Sword.of.Vengeance.1972.BluRay.1080p.DTS-HD.MA.1.0.x265.10bit-BeiTai.mkv

  5. Format : Matroska

  6. Format version : Version 4

  7. File size : 9.23 GiB

  8. Duration : 1 h 23 min

  9. Overall bit rate mode : Variable

  10. Overall bit rate : 15.8 Mb/s

  11. Encoded date : UTC 2021-03-01 08:48:17

  12. Writing application : mkvmerge v49.0.0 ('Sick Of Losing Soulmates') 64-bit

  13. Writing library : libebml v1.4.0 + libmatroska v1.6.1

  14. Video

  15. ID : 1

  16. Format : HEVC

  17. Format/Info : High Efficiency Video Coding

  18. Format profile : Main [email protected]@High

  19. Codec ID : V_MPEGH/ISO/HEVC

  20. Duration : 1 h 23 min

  21. Bit rate : 15.0 Mb/s

  22. Width : 1 920 pixels

  23. Height : 800 pixels

  24. Display aspect ratio : 2.40:1

  25. Frame rate mode : Constant

  26. Frame rate : 23.976 (24000/1001/53354) FPS

  27. Color space : YUV

  28. Chroma subsampling : 4:2:0

  29. Bit depth : 10 bits

  30. Bits/(Pixel*Frame) : 0.406

  31. Stream size : 8.75 GiB (95%)

  32. Title : HEVC, [email protected]@High, 24/1.001 fps

  33. Writing library : x265 3.4+14-gd419c7152:[Windows][GCC 10.2.0][64 bit] 10bit

  34. Encoding settings : cpuid=533541111039 / frame-threads=3 / numa-pools=8 / wpp / pmode / pme / no-psnr / no-ssim / log-level=2 / input-csp=1 / input-res=1920x800 / interlace=0 / total-frames=120403 / level-idc=51 / high-tier=1 / uhd-bd=0 / ref=5 / no-allow-non-conformance / no-repeat-headers / annexb / no-aud / no-hrd / info / hash=0 / no-temporal-layers / open-gop / min-keyint=24 / keyint=240 / gop-lookahead=0 / bframes=6 / b-adapt=2 / b-pyramid / bframe-bias=0 / rc-lookahead=40 / lookahead-slices=0 / NTMzNTQ=uuDQuD2mJt9fsCf / scenecut=40 / hist-scenecut=0 / radl=0 / no-splice / no-intra-refresh / ctu=32 / min-cu-size=8 / no-rect / no-amp / max-tu-size=32 / tu-inter-depth=3 / tu-intra-depth=3 / limit-tu=4 / rdoq-level=2 / dynamic-rd=0.00 / no-ssim-rd / signhide / no-tskip / nr-intra=0 / nr-inter=0 / no-constrained-intra / no-strong-intra-smoothing / max-merge=4 / limit-refs=1 / limit-modes / me=3 / subme=4 / merange=25 / temporal-mvp / no-frame-dup / no-hme / weightp / weightb / no-analyze-src-pics / deblock=-3:-3 / no-sao / no-sao-non-deblock / rd=6 / selective-sao=0 / no-early-skip / rskip / no-fast-intra / no-tskip-fast / no-cu-lossless / b-intra / no-splitrd-skip / rdpenalty=0 / psy-rd=2.00 / psy-rdoq=1.00 / no-rd-refine / no-lossless / cbqpoffs=0 / crqpoffs=0 / rc=crf / crf=19.5 / qcomp=0.65 / qpstep=4 / stats-write=0 / stats-read=0 / vbv-maxrate=80000 / vbv-bufsize=80000 / vbv-init=0.9 / crf-max=0.0 / crf-min=0.0 / ipratio=1.40 / pbratio=1.30 / aq-mode=2 / aq-strength=0.85 / cutree / zone-count=0 / no-strict-cbr / qg-size=32 / no-rc-grain / qpmax=69 / qpmin=0 / no-const-vbv / sar=1 / overscan=0 / videoformat=5 / range=0 / colorprim=1 / transfer=1 / colormatrix=1 / chromaloc=0 / display-window=0 / cll=0,0 / min-luma=0 / max-luma=1023 / log2-max-poc-lsb=8 / vui-timing-info / vui-hrd-info / slices=1 / no-opt-qp-pps / no-opt-ref-list-length-pps / no-multi-pass-opt-rps / scenecut-bias=0.05 / hist-threshold=0.03 / no-opt-cu-delta-qp / no-aq-motion / no-hdr10 / no-hdr10-opt / no-dhdr10-opt / no-idr-recovery-sei / analysis-reuse-level=0 / analysis-save-reuse-level=0 / analysis-load-reuse-level=0 / scale-factor=0 / refine-intra=0 / refine-inter=0 / refine-mv=1 / refine-ctu-distortion=0 / no-limit-sao / ctu-info=0 / no-lowpass-dct / refine-analysis-type=0 / copy-pic=1 / max-ausize-factor=1.0 / no-dynamic-refine / no-single-sei / no-hevc-aq / no-svt / no-field / qp-adaptation-range=1.00 / no-scenecut-aware-qpconformance-window-offsets / right=0 / bottom=0 / NTMzNTQ= / decoder-max-rate=0

  35. Language : English

  36. Default : Yes

  37. Forced : No

  38. Color range : Limited

  39. Color primaries : BT.709

  40. Transfer characteristics : BT.709

  41. Matrix coefficients : BT.709

  42. Audio

  43. ID : 2

  44. Format : DTS XLL

  45. Format/Info : Digital Theater Systems

  46. Commercial name : DTS-HD Master Audio

  47. Codec ID : A_DTS

  48. Duration : 1 h 23 min

  49. Bit rate mode : Variable

  50. Bit rate : 758 kb/s

  51. Channel(s) : 1 channel

  52. Channel layout : C

  53. Sampling rate : 48.0 kHz

  54. Frame rate : 93.750 FPS (512 SPF)

  55. Bit depth : 24 bits

  56. Compression mode : Lossless

  57. Stream size : 454 MiB (5%)

  58. Title : Japanese DTS-HD Master Audio 1.0

  59. Language : Japanese

  60. Default : Yes

  61. Forced : No

  62. Text #1

  63. ID : 3

  64. Format : PGS

  65. Codec ID : S_HDMV/PGS

  66. Codec ID/Info : Picture based subtitle format used on BDs/HD-DVDs

  67. Duration : 1 h 23 min

  68. Bit rate : 35.9 kb/s

  69. Count of elements : 1575

  70. Stream size : 21.4 MiB (0%)

  71. Title : Eng/SUP

  72. Language : English

  73. Default : No

  74. Forced : No

  75. Text #2

  76. ID : 4

  77. Format : PGS

  78. Codec ID : S_HDMV/PGS

  79. Codec ID/Info : Picture based subtitle format used on BDs/HD-DVDs

  80. Duration : 1 h 22 min

  81. Bit rate : 11.1 kb/s

  82. Count of elements : 1300

  83. Stream size : 6.55 MiB (0%)

  84. Title : Chs/SUP 简体

  85. Language : Chinese

  86. Default : Yes

  87. Forced : No

  88. Text #3

  89. ID : 5

  90. Format : PGS

  91. Codec ID : S_HDMV/PGS

  92. Codec ID/Info : Picture based subtitle format used on BDs/HD-DVDs

  93. Duration : 1 h 22 min

  94. Bit rate : 11.5 kb/s

  95. Count of elements : 1300

  96. Stream size : 6.77 MiB (0%)

  97. Title : Cht/SUP 繁体

  98. Language : Chinese

  99. Default : No

  100. Forced : No

  101. Menu

  102. 00:00:00.000 : :第 01 章

  103. 00:06:01.236 : :第 02 章

  104. 00:11:11.212 : :第 03 章

  105. 00:14:13.394 : :第 04 章

  106. 00:18:04.125 : :第 05 章

  107. 00:21:19.612 : :第 06 章

  108. 00:26:18.285 : :第 07 章

  109. 00:27:58.260 : :第 08 章

  110. 00:33:51.529 : :第 09 章

  111. 00:38:13.458 : :第 10 章

  112. 00:41:36.119 : :第 11 章

  113. 00:44:45.975 : :第 12 章

  114. 00:46:42.174 : :第 13 章

  115. 00:52:24.016 : :第 14 章

  116. 00:55:41.129 : :第 15 章

  117. 01:04:08.678 : :第 16 章

  118. 01:08:05.957 : :第 17 章

  119. 01:10:48.244 : :第 18 章

  120. 01:12:39.021 : :第 19 章

  121. 01:16:27.666 : :第 20 章


复制代码



文件下载


除非特别注明,本文『带子雄狼[共6部合集][简繁英字幕].Lone.Wolf.and.Cub.1972-1974.CC.BluRay.1080p.DTS-HD.MA.1.0.x265.10bit-ALT 43.53GB』来源于互联网机器人自动抓取,非本站原创。 浮游电影网不对本文拥有版权,如有侵犯,请联系邮箱:fuyouu#yandex.com[#换成@]投诉。我们会在15个工作日内删除。 但烦请转载时请标明出处:“本文转载于『浮游电影网』,原文地址:https://www.fuyouu.com/21225.html

评论吧骚年!

发表你的见解   

昵称*

E-mail*(建议输入,以便收到博主回复的提示邮件)

验证码*

您可以使用eMule或eMule Mod(Windows)、aMule(Win、Linux、Mac)等软件下载eD2k链接。。
eMule收藏集(.emulecollection)文件是您选中的所有链接的列表文件。eMule可以直接下载它们。
按住SHIFT键选择可以选中多个选择框。
可用文件名和大小选择器来选择文件。
文件名选择器帮您根据文件名称或后缀来选择文件。不分大小写。
符号使用:
和:空格( )、+
不包含:-
或:|
转义:一对英文引号("");
匹配开头:^
匹配结尾:$
例如:
选中所有名称中包含有“eMule”或“0.49c”字眼,但不包含有“exe”字眼的:emule|0.49c -exe
选中所有名称的开头是“eMule”,结尾是“0.49c”的:^emule 0.49c$
选中所有名称中带有“eMule 0.49c”的(必须是“eMule 0.49c”,中间没有别的字符,不能是“eMule fake 0.49c”),需要转义:"emule 0.49c"
大小选择器帮您根据文件大小选择文件。