当前位置: 首页 >> 欧美电影 >> 王牌特工[共2部合集][简繁英字幕].Kingsman.1-2.2014-2017.BluRay.1080p.DTS-HD.MA.7.1.x265.10bit-ALT 23.41GB >> 正文

王牌特工[共2部合集][简繁英字幕].Kingsman.1-2.2014-2017.BluRay.1080p.DTS-HD.MA.7.1.x265.10bit-ALT 23.41GB

2022年04月10日 20:33:23     电影发布:来源于网络     电影分类:欧美电影     评论(0)    

王牌特工[共2部合集][简繁英字幕].Kingsman.1 2.2014 2017.BluRay.1080p.DTS HD.MA.7.1.x265.10bit ALT 23.41GB 动作 剧情 欧美电影  第1张

◎译 名 王牌特工2:黄金圈 / 王牌特工2 / 皇家特工:金圈子(港) / 金牌特务:机密对决(台) / 王牌特工2:黄金圆环 / 王牌特工:黄金圈 / Kingsman 2

◎片 名 Kingsman: The Golden Circle

◎年 代 2017

◎产 地 英国 / 美国

◎类 别 喜剧 / 动作 / 冒险

◎语 言 英语 / 意大利语 / 瑞典语

◎上映日期 2017-10-20(中国大陆) / 2017-09-20(英国) / 2017-09-22(美国)

◎IMDb链接 https://www.imdb.com/title/tt4649466/

◎豆瓣评分 6.8/10 (321989人评价)

◎豆瓣链接 https://movie.douban.com/subject/26378579/

◎片 长 141分钟

◎导 演 马修·沃恩 Matthew Vaughn (id:1031852)

◎编 剧 简·古德曼 Jane Goldman (id:1018114)

马修·沃恩 Matthew Vaughn (id:1031852)

马克·米勒 Mark Millar (id:1014154)

戴夫·吉布森 Dave Gibbons (id:1001198)

◎演 员 塔伦·埃哲顿 Taron Egerton (id:1340497)

科林·费尔斯 Colin Firth (id:1031223)

马克·斯特朗 Mark Strong (id:1274374)

朱丽安·摩尔 Julianne Moore (id:1054519)

埃尔顿·约翰 Elton John (id:1000193)

爱德华·霍尔克罗夫特 Edward Holcroft (id:1348118)

哈莉·贝瑞 Halle Berry (id:1054415)

佩德罗·帕斯卡 Pedro Pascal (id:1329628)

查宁·塔图姆 Channing Tatum (id:1031224)

杰夫·布里吉斯 Jeff Bridges (id:1036313)

迈克尔·刚本 Michael Gambon (id:1027154)

索菲·库克森 Sophie Cookson (id:1343282)

汉娜·奥斯特罗姆 Hanna Alstr?m (id:1057177)

比约恩·格拉纳特 Bj?rn Granath (id:1091838)

莱娜·恩卓 Lena Endre (id:1009453)

波比·迪瓦伊 Poppy Delevingne (id:1341158)

汤姆·本尼迪克·奈特 Tom Benedict Knight (id:1366871)

托马斯·图尔格斯 Thomas Turgoose (id:1274770)

基思·艾伦 Keith Allen (id:1019138)

艾米丽·沃森 Emily Watson (id:1013814)

布鲁斯·格林伍德 Bruce Greenwood (id:1025206)

戈登·亚历山大 Gordon Alexander (id:1346399)

马丁·福特 Martyn Ford (id:1371909)

明格斯·约翰斯顿 Mingus Johnston (id:1329877)

斯图尔特·惠兰 Stuart Whelan (id:1392913)

蒋静菊 Jingju Jiang (id:1419841)

劳伦斯·波萨 Laurentiu Possa (id:1424722)

萨曼莎·考格兰 Samantha Coughlan (id:1433370)

杰夫·里基茨 Jeff Ricketts (id:1433862)

马修·沃恩 Matthew Vaughn (id:1031852)

亨利·杰克曼 Henry Jackman (id:1315635)

马修·马杰森 Matthew Margeson (id:1019865)

乔治·瑞奇蒙 George Richmond (id:1434359)

埃迪·汉密尔顿 Eddie Hamilton (id:1412062)

格兰特·阿姆斯特朗 Grant Armstrong (id:1460558)

詹姆斯·莫拉尔 James Morrall (id:1466523)

茱莉亚·卡斯透 Julia Castle (id:1466536)

艾丽安·飞利浦 Arianne Phillips (id:1294449)

布拉德利·詹姆斯·艾伦 Bradley James Allan (id:1056473)

黄海 Hai Huang (id:1401245)

◎简 介

时光飞逝,一转眼,艾格西(塔伦·埃格顿 Taron Egerton 饰)已经成长为了一名出色而又可靠的特工,他和蒂尔德公主(汉娜·阿尔斯托姆 Hanna Alstr?m 饰)之间的感情也愈演愈浓,两人眼看着就要携手步入婚姻的殿堂。就在这个节骨眼上,前特工查理(爱德华·霍尔克罗夫特 Edward Holcroft 饰)杀了回来,如今的他效力于一个名为“黄金圈”的贩毒组织,组织头目波比(朱丽安·摩尔 Julianne Moore 饰)是一个邪恶而又野心勃勃的女人。

查理查出了金士曼的所有据点,用导弹将它们全部摧毁。幸存的艾格西和梅林(马克·斯特朗 Mark Strong 饰)千里迢迢远赴美国,向潜伏在那里的联邦特工寻求帮助。波比种植了一种含有毒素的大麻,将它们输送往世界各地,当瘾君子们体内的毒素渐渐发作后,波比以此为筹码,正式向政府宣战。

◎获奖情况 (共2项)

第20届美国服装设计工会奖 (2018)

现代电影最佳服装设计(提名)

└──艾丽安·飞利浦 (id:1294449)

第4届豆瓣电影年度榜单 (2017)

10月最受关注电影(提名)

  1. 合集文件列表:

  2. 1.Kingsman.The.Golden.Circle.2017.BluRay.1080p.DTS-HD.MA.7.1.x265.10bit-ALT.mkv 11.44GB

  3. 2.Kingsman.The.Secret.Service.2014.BluRay.1080p.2Audio.DTS-HD.MA.7.1.x265.10bit-ALT.mkv 11.97GB


复制代码

  1. ##### MediaInfo ######

  2. General

  3. Unique ID : 332973218116946025946682513550521468286 (0xFA804F2421204E50FBC52B9B2461057E)

  4. Complete name : Kingsman.The.Golden.Circle.2017.BluRay.1080p.DTS-HD.MA.7.1.x265.10bit-BeiTai.mkv

  5. Format : Matroska

  6. Format version : Version 4

  7. File size : 11.4 GiB

  8. Duration : 2 h 21 min

  9. Overall bit rate mode : Variable

  10. Overall bit rate : 11.6 Mb/s

  11. Encoded date : UTC 2020-06-27 12:20:00

  12. Writing application : mkvmerge v47.0.0 ('Black Flag') 64-bit

  13. Writing library : libebml v1.3.10 + libmatroska v1.5.2

  14. Video

  15. ID : 1

  16. Format : HEVC

  17. Format/Info : High Efficiency Video Coding

  18. Format profile : Main [email protected]@High

  19. Codec ID : V_MPEGH/ISO/HEVC

  20. Duration : 2 h 21 min

  21. Bit rate : 6 390 kb/s

  22. Width : 1 920 pixels

  23. Height : 804 pixels

  24. Display aspect ratio : 2.40:1

  25. Frame rate mode : Constant

  26. Frame rate : 23.976 (24000/1001/53354) FPS

  27. Color space : YUV

  28. Chroma subsampling : 4:2:0

  29. Bit depth : 10 bits

  30. Bits/(Pixel*Frame) : 0.173

  31. Stream size : 6.30 GiB (55%)

  32. Title : HEVC, [email protected]@High, 24/1.001 fps @ 6390 kbps

  33. Writing library : x265 3.3+1-g396395b2b:[Windows][GCC 9.2.0][64 bit] 10bit

  34. Encoding settings : cpuid=533541111039 / frame-threads=4 / numa-pools=16 / wpp / pmode / pme / no-psnr / no-ssim / log-level=2 / input-csp=1 / input-res=1920x804 / interlace=0 / total-frames=202891 / level-idc=51 / high-tier=1 / uhd-bd=0 / ref=5 / no-allow-non-conformance / no-repeat-headers / annexb / no-aud / no-hrd / info / hash=0 / no-temporal-layers / open-gop / min-keyint=24 / keyint=240 / gop-lookahead=0 / bframes=6 / b-adapt=2 / b-pyramid / bframe-bias=0 / rc-lookahead=40 / lookahead-slices=0 / NTMzNTQ=uuDQuD2mJt9fsCf / scenecut=40 / hist-scenecut=0 / radl=0 / no-splice / no-intra-refresh / ctu=32 / min-cu-size=8 / no-rect / no-amp / max-tu-size=32 / tu-inter-depth=3 / tu-intra-depth=3 / limit-tu=4 / rdoq-level=2 / dynamic-rd=0.00 / no-ssim-rd / signhide / no-tskip / nr-intra=0 / nr-inter=0 / no-constrained-intra / no-strong-intra-smoothing / max-merge=4 / limit-refs=1 / limit-modes / me=3 / subme=4 / merange=25 / temporal-mvp / no-frame-dup / no-hme / weightp / weightb / no-analyze-src-pics / deblock=-3:-3 / no-sao / no-sao-non-deblock / rd=6 / selective-sao=0 / no-early-skip / rskip / no-fast-intra / no-tskip-fast / no-cu-lossless / b-intra / no-splitrd-skip / rdpenalty=0 / psy-rd=2.00 / psy-rdoq=1.00 / no-rd-refine / no-lossless / cbqpoffs=0 / crqpoffs=0 / rc=crf / crf=17.0 / qcomp=0.65 / qpstep=4 / stats-write=0 / stats-read=0 / vbv-maxrate=80000 / vbv-bufsize=80000 / vbv-init=0.9 / crf-max=0.0 / crf-min=0.0 / ipratio=1.40 / pbratio=1.30 / aq-mode=2 / aq-strength=0.85 / cutree / zone-count=0 / no-strict-cbr / qg-size=32 / no-rc-grain / qpmax=69 / qpmin=0 / no-const-vbv / sar=1 / overscan=0 / videoformat=5 / range=0 / colorprim=1 / transfer=1 / colormatrix=1 / chromaloc=0 / display-window=0 / cll=0,0 / min-luma=0 / max-luma=1023 / log2-max-poc-lsb=8 / vui-timing-info / vui-hrd-info / slices=1 / no-opt-qp-pps / no-opt-ref-list-length-pps / no-multi-pass-opt-rps / scenecut-bias=0.05 / hist-threshold=0.01 / no-opt-cu-delta-qp / no-aq-motion / no-hdr10 / no-hdr10-opt / no-dhdr10-opt / no-idr-recovery-sei / analysis-reuse-level=0 / analysis-save-reuse-level=0 / analysis-load-reuse-level=0 / scale-factor=0 / refine-intra=0 / refine-inter=0 / refine-mv=1 / refine-ctu-distortion=0 / no-limit-sao / ctu-info=0 / no-lowpass-dct / refine-analysis-type=0 / copy-pic=1 / max-ausize-factor=1.0 / no-dynamic-refine / no-single-sei / no-hevc-aq / no-svt / no-field / qp-adaptation-range=1.00 / no-scenecut-aware-qpconformance-window-offsets / right=0 / bottom=0 / NTMzNTQ=

  35. Language : English

  36. Default : Yes

  37. Forced : No

  38. Color range : Limited

  39. Color primaries : BT.709

  40. Transfer characteristics : BT.709

  41. Matrix coefficients : BT.709

  42. Audio

  43. ID : 2

  44. Format : DTS XLL

  45. Format/Info : Digital Theater Systems

  46. Commercial name : DTS-HD Master Audio

  47. Codec ID : A_DTS

  48. Duration : 2 h 21 min

  49. Bit rate mode : Variable

  50. Bit rate : 5 129 kb/s

  51. Channel(s) : 8 channels

  52. Channel layout : C L R LFE Lb Rb Lss Rss

  53. Sampling rate : 48.0 kHz

  54. Frame rate : 93.750 FPS (512 SPF)

  55. Bit depth : 24 bits

  56. Compression mode : Lossless

  57. Stream size : 5.05 GiB (44%)

  58. Title : English DTS-HD Master Audio 7.1 @ 5129 kbps

  59. Language : English

  60. Default : Yes

  61. Forced : No

  62. Text #1

  63. ID : 3

  64. Format : PGS

  65. Codec ID : S_HDMV/PGS

  66. Codec ID/Info : Picture based subtitle format used on BDs/HD-DVDs

  67. Duration : 2 h 13 min

  68. Bit rate : 40.4 kb/s

  69. Count of elements : 4284

  70. Stream size : 38.5 MiB (0%)

  71. Title : Eng/SUP

  72. Language : English

  73. Default : No

  74. Forced : No

  75. Text #2

  76. ID : 4

  77. Format : PGS

  78. Codec ID : S_HDMV/PGS

  79. Codec ID/Info : Picture based subtitle format used on BDs/HD-DVDs

  80. Duration : 2 h 19 min

  81. Bit rate : 25.0 kb/s

  82. Count of elements : 3636

  83. Stream size : 25.0 MiB (0%)

  84. Title : Chs/SUP 简体

  85. Language : Chinese

  86. Default : Yes

  87. Forced : No

  88. Text #3

  89. ID : 5

  90. Format : PGS

  91. Codec ID : S_HDMV/PGS

  92. Codec ID/Info : Picture based subtitle format used on BDs/HD-DVDs

  93. Duration : 2 h 19 min

  94. Bit rate : 25.5 kb/s

  95. Count of elements : 3636

  96. Stream size : 25.5 MiB (0%)

  97. Title : Cht/SUP 繁体

  98. Language : Chinese

  99. Default : No

  100. Forced : No

  101. Menu

  102. 00:00:00.000 : en:第 01 章

  103. 00:04:51.958 : en:第 02 章

  104. 00:09:39.454 : en:第 03 章

  105. 00:13:36.607 : en:第 04 章

  106. 00:18:54.300 : en:第 05 章

  107. 00:24:57.287 : en:第 06 章

  108. 00:28:43.347 : en:第 07 章

  109. 00:32:52.304 : en:第 08 章

  110. 00:39:18.731 : en:第 09 章

  111. 00:43:21.849 : en:第 10 章

  112. 00:48:26.570 : en:第 11 章

  113. 00:53:54.106 : en:第 12 章

  114. 00:58:31.258 : en:第 13 章

  115. 01:05:04.901 : en:第 14 章

  116. 01:09:52.522 : en:第 15 章

  117. 01:13:34.744 : en:第 16 章

  118. 01:19:41.860 : en:第 17 章

  119. 01:23:45.103 : en:第 18 章

  120. 01:28:55.288 : en:第 19 章

  121. 01:33:25.225 : en:第 20 章

  122. 01:40:14.759 : en:第 21 章

  123. 01:45:03.255 : en:第 22 章

  124. 01:49:38.489 : en:第 23 章

  125. 01:55:15.992 : en:第 24 章

  126. 02:01:40.835 : en:第 25 章

  127. 02:05:44.036 : en:第 26 章

  128. 02:12:36.407 : en:第 27 章

  129. 02:15:15.274 : en:第 28 章


复制代码



文件下载


除非特别注明,本文『王牌特工[共2部合集][简繁英字幕].Kingsman.1-2.2014-2017.BluRay.1080p.DTS-HD.MA.7.1.x265.10bit-ALT 23.41GB』来源于互联网机器人自动抓取,非本站原创。 浮游电影网不对本文拥有版权,如有侵犯,请联系邮箱:fuyouu#yandex.com[#换成@]投诉。我们会在15个工作日内删除。 但烦请转载时请标明出处:“本文转载于『浮游电影网』,原文地址:https://www.fuyouu.com/21223.html

评论吧骚年!

发表你的见解   

昵称*

E-mail*(建议输入,以便收到博主回复的提示邮件)

验证码*

您可以使用eMule或eMule Mod(Windows)、aMule(Win、Linux、Mac)等软件下载eD2k链接。。
eMule收藏集(.emulecollection)文件是您选中的所有链接的列表文件。eMule可以直接下载它们。
按住SHIFT键选择可以选中多个选择框。
可用文件名和大小选择器来选择文件。
文件名选择器帮您根据文件名称或后缀来选择文件。不分大小写。
符号使用:
和:空格( )、+
不包含:-
或:|
转义:一对英文引号("");
匹配开头:^
匹配结尾:$
例如:
选中所有名称中包含有“eMule”或“0.49c”字眼,但不包含有“exe”字眼的:emule|0.49c -exe
选中所有名称的开头是“eMule”,结尾是“0.49c”的:^emule 0.49c$
选中所有名称中带有“eMule 0.49c”的(必须是“eMule 0.49c”,中间没有别的字符,不能是“eMule fake 0.49c”),需要转义:"emule 0.49c"
大小选择器帮您根据文件大小选择文件。