当前位置: 首页 >> 国产电影 >> 识色,幸也[国语配音/中文字幕].One.Night,.or.Whole.Life.2017.1080p.WEB-DL.H265.AAC-CTRLWEB 3.14GB >> 正文

识色,幸也[国语配音/中文字幕].One.Night,.or.Whole.Life.2017.1080p.WEB-DL.H265.AAC-CTRLWEB 3.14GB

2022年04月10日 20:27:27     电影发布:来源于网络     电影分类:国产电影     评论(0)    

识色,幸也[国语配音/中文字幕].One.Night,.or.Whole.Life.2017.1080p.WEB DL.H265.AAC CTRLWEB 3.14GB 爱情 剧情 国产电影  第1张

◎译 名 识色,幸也 / 识色幸也

◎年 代 2017

◎产 地 中国大陆

◎类 别 剧情 / 爱情

◎语 言 汉语普通话

◎上映日期 2017-11-03(中国大陆)

◎IMDb链接 https://www.imdb.com/title//

◎豆瓣评分 3.3/10 (1216人评价)

◎豆瓣链接 https://movie.douban.com/subject/26882309/

◎片 长 103分钟

◎导 演 刘欣翰 Xinhan Liu (id:1332537)

◎编 剧 刘欣翰 Xinhan Liu (id:1332537)

◎演 员 范逸臣 Van Fan (id:1274683)

黄奕 Yi Huang (id:1051051)

沈梦辰 Mengchen Shen (id:1327799)

韩承羽 Chengyu Han (id:1347731)

刘之冰 Zhibing Liu (id:1316135)

唐熙 Xi Tang (id:1364134)

万子晴 Ziqing Wan (id:1372946)

孙雨 Yumi (id:1377551)

◎简 介

痴情凤凰男许诺与花心公子哥胡晓高是大学同学,因一次捐肾二人情同手足。境遇变迁,两段真爱来袭,他们的爱情态度却发生猛然逆转。最终,晓高用生命给了许诺坚守真爱的启示,许诺懂得了真爱是那样弥足珍贵。

  1. ##### MediaInfo ######

  2. General

  3. Complete name : One.Night, or.Whole.Life.2017.1080p.WEB-DL.H265.AAC-CHDWEB.mp4

  4. Format : MPEG-4

  5. Format profile : Base Media

  6. Codec ID : isom (isom/iso2/mp41)

  7. File size : 3.14 GiB

  8. Duration : 1 h 39 min

  9. Overall bit rate mode : Variable

  10. Overall bit rate : 4 498 kb/s

  11. Recorded date : 2022-04-09T10:47:42.3090819+08:00

  12. Writing application : Lavf59.16.100

  13. Video

  14. ID : 1

  15. Format : HEVC

  16. Format/Info : High Efficiency Video Coding

  17. Format profile : [email protected]@High

  18. Codec ID : hev1

  19. Codec ID/Info : High Efficiency Video Coding

  20. Duration : 1 h 39 min

  21. Bit rate : 4 367 kb/s

  22. Width : 1 920 pixels

  23. Height : 808 pixels

  24. Display aspect ratio : 2.40:1

  25. Frame rate mode : Constant

  26. Frame rate : 24.000 FPS

  27. Color space : YUV

  28. Chroma subsampling : 4:2:0

  29. Bit depth : 8 bits

  30. Bits/(Pixel*Frame) : 0.117

  31. Stream size : 3.04 GiB (97%)

  32. Codec configuration box : hvcC

  33. Audio

  34. ID : 2

  35. Format : AAC LC

  36. Format/Info : Advanced Audio Codec Low Complexity

  37. Codec ID : mp4a-40-2

  38. Duration : 1 h 39 min

  39. Bit rate mode : Variable

  40. Bit rate : 124 kb/s

  41. Maximum bit rate : 127 kb/s / 127 kb/s

  42. Channel(s) : 2 channels

  43. Channel layout : L R

  44. Sampling rate : 44.1 kHz

  45. Frame rate : 43.066 FPS (1024 SPF)

  46. Compression mode : Lossy

  47. Stream size : 88.7 MiB (3%)

  48. Default : Yes

  49. Alternate group : 1


复制代码



文件下载


除非特别注明,本文『识色,幸也[国语配音/中文字幕].One.Night,.or.Whole.Life.2017.1080p.WEB-DL.H265.AAC-CTRLWEB 3.14GB』来源于互联网机器人自动抓取,非本站原创。 浮游电影网不对本文拥有版权,如有侵犯,请联系邮箱:fuyouu#yandex.com[#换成@]投诉。我们会在15个工作日内删除。 但烦请转载时请标明出处:“本文转载于『浮游电影网』,原文地址:https://www.fuyouu.com/21218.html

评论吧骚年!

发表你的见解   

昵称*

E-mail*(建议输入,以便收到博主回复的提示邮件)

验证码*

您可以使用eMule或eMule Mod(Windows)、aMule(Win、Linux、Mac)等软件下载eD2k链接。。
eMule收藏集(.emulecollection)文件是您选中的所有链接的列表文件。eMule可以直接下载它们。
按住SHIFT键选择可以选中多个选择框。
可用文件名和大小选择器来选择文件。
文件名选择器帮您根据文件名称或后缀来选择文件。不分大小写。
符号使用:
和:空格( )、+
不包含:-
或:|
转义:一对英文引号("");
匹配开头:^
匹配结尾:$
例如:
选中所有名称中包含有“eMule”或“0.49c”字眼,但不包含有“exe”字眼的:emule|0.49c -exe
选中所有名称的开头是“eMule”,结尾是“0.49c”的:^emule 0.49c$
选中所有名称中带有“eMule 0.49c”的(必须是“eMule 0.49c”,中间没有别的字符,不能是“eMule fake 0.49c”),需要转义:"emule 0.49c"
大小选择器帮您根据文件大小选择文件。