当前位置: 首页 >> 港台电影 >> 诡扯[国语音轨/中英字幕].Treat.or.Trick.2021.1080p.DSNP.WEB-DL.DDP5.1.H.264-CTRLWEB 3.70GB >> 正文

诡扯[国语音轨/中英字幕].Treat.or.Trick.2021.1080p.DSNP.WEB-DL.DDP5.1.H.264-CTRLWEB 3.70GB

2022年04月10日 20:00:49     电影发布:来源于网络     电影分类:港台电影     评论(0)    

诡扯[国语音轨/中英字幕].Treat.or.Trick.2021.1080p.DSNP.WEB DL.DDP5.1.H.264 CTRLWEB 3.70GB 恐怖 喜剧 港台电影  第1张

◎译 名 诡扯 / 时失两公里 / Treat or Trick

◎片 名 詭扯

◎年 代 2021

◎产 地 中国台湾

◎类 别 喜剧 / 恐怖

◎语 言 汉语普通话

◎上映日期 2021-11-12(中国台湾) / 2021-07-11(韩国富川奇幻影展)

◎IMDb链接 https://www.imdb.com/title/tt15445440/

◎豆瓣评分 6.4/10 (399人评价)

◎豆瓣链接 https://movie.douban.com/subject/35206186/

◎片 长 106分钟

◎导 演 许富翔 Fu-Hsiang Hsu (id:1372132)

◎编 剧 林宇辰 Yu-Chen Lin (id:1406909)

许富翔 Fu-Hsiang Hsu (id:1372132)

欧力福 (id:1462448)

◎演 员 陈柏霖 Bo-lin Chen (id:1211987)

陈以文 Yiwen Chen (id:1280584)

刘冠廷 Kuan-ting Liu (id:1377282)

黄尚禾 Shang-Ho Huang (id:1330444)

林鹤轩 He-Hsuan Lin (id:1371838)

陈意涵 Ivy Chen (id:1274316)

侯彦西 Yen Hsi Hou (id:1315838)

邱彦翔 Ralf Ciou (id:1317174)

白静宜 Ching-i Pai (id:1372418)

洛可杉 Roc Chen (id:1367958)

李栋全 Wenders Li (id:1275162)

萧仁杰 Jen-Chieh Hsiao (id:1462456)

宋冠仪 (id:1462457)

汤湘竹 Shiang-Chu Tang (id:1298902)

刘小草 Agnes Liu (id:1449145)

曾雅宁 Ning Tseng (id:1449146)

郭宪聪 Tomi Kuo (id:1444240)

洪昰颢 Scott Hung (id:1416638)

◎简 介

電影翻拍自2004年在韓國上映的《時失兩公里》,故事描述男主角偷了鑽石後匆忙來到一偯麨椤笗r失里」的村落,不久後就人間蒸發。探員追隨他的腳步來到了「時失里」,發現這偞遄友e的村民並不如他想像中那般善良且純潔。

  1. ##### MediaInfo ######

  2. General

  3. Unique ID : 168758226252939620457017948318226954108 (0x7EF5A6F20195081244FCA84DE43FB77C)

  4. Complete name : [email protected]B.mkv

  5. Format : Matroska

  6. Format version : Version 4

  7. File size : 3.70 GiB

  8. Duration : 1 h 46 min

  9. Overall bit rate mode : Variable

  10. Overall bit rate : 4 999 kb/s

  11. Encoded date : UTC 2022-04-09 04:03:26

  12. Writing application : mkvmerge v65.0.0 ('Too Much') 64-bit

  13. Writing library : libebml v1.4.2 + libmatroska v1.6.4

  14. Video

  15. ID : 1

  16. Format : AVC

  17. Format/Info : Advanced Video Codec

  18. Format profile : [email protected]

  19. Format settings : CABAC / 4 Ref Frames

  20. Format settings, CABAC : Yes

  21. Format settings, Reference frames : 4 frames

  22. Codec ID : V_MPEG4/ISO/AVC

  23. Duration : 1 h 46 min

  24. Bit rate mode : Variable

  25. Bit rate : 4 741 kb/s

  26. Maximum bit rate : 12.7 Mb/s

  27. Width : 1 920 pixels

  28. Height : 1 080 pixels

  29. Display aspect ratio : 16:9

  30. Frame rate mode : Constant

  31. Frame rate : 24.000 FPS

  32. Color space : YUV

  33. Chroma subsampling : 4:2:0

  34. Bit depth : 8 bits

  35. Scan type : Progressive

  36. Bits/(Pixel*Frame) : 0.095

  37. Stream size : 3.51 GiB (95%)

  38. Language : English

  39. Default : Yes

  40. Forced : No

  41. Color range : Limited

  42. Color primaries : BT.709

  43. Transfer characteristics : BT.709

  44. Matrix coefficients : BT.709

  45. Audio

  46. ID : 2

  47. Format : E-AC-3

  48. Format/Info : Enhanced AC-3

  49. Commercial name : Dolby Digital Plus

  50. Codec ID : A_EAC3

  51. Duration : 1 h 46 min

  52. Bit rate mode : Constant

  53. Bit rate : 256 kb/s

  54. Channel(s) : 6 channels

  55. Channel layout : L R C LFE Ls Rs

  56. Sampling rate : 48.0 kHz

  57. Frame rate : 31.250 FPS (1536 SPF)

  58. Compression mode : Lossy

  59. Stream size : 194 MiB (5%)

  60. Language : Chinese

  61. Service kind : Complete Main

  62. Default : Yes

  63. Forced : No

  64. Text #1

  65. ID : 3

  66. Format : UTF-8

  67. Codec ID : S_TEXT/UTF8

  68. Codec ID/Info : UTF-8 Plain Text

  69. Duration : 1 h 41 min

  70. Bit rate : 45 b/s

  71. Count of elements : 1532

  72. Stream size : 33.6 KiB (0%)

  73. Language : English

  74. Default : No

  75. Forced : No

  76. Text #2

  77. ID : 4

  78. Format : UTF-8

  79. Codec ID : S_TEXT/UTF8

  80. Codec ID/Info : UTF-8 Plain Text

  81. Duration : 1 h 41 min

  82. Bit rate : 35 b/s

  83. Count of elements : 1479

  84. Stream size : 26.8 KiB (0%)

  85. Title : Simplified

  86. Language : Chinese

  87. Default : No

  88. Forced : No

  89. Text #3

  90. ID : 5

  91. Format : UTF-8

  92. Codec ID : S_TEXT/UTF8

  93. Codec ID/Info : UTF-8 Plain Text

  94. Duration : 1 h 41 min

  95. Bit rate : 37 b/s

  96. Count of elements : 1479

  97. Stream size : 28.1 KiB (0%)

  98. Title : Traditional

  99. Language : Chinese

  100. Default : No

  101. Forced : No


复制代码



文件下载


除非特别注明,本文『诡扯[国语音轨/中英字幕].Treat.or.Trick.2021.1080p.DSNP.WEB-DL.DDP5.1.H.264-CTRLWEB 3.70GB』来源于互联网机器人自动抓取,非本站原创。 浮游电影网不对本文拥有版权,如有侵犯,请联系邮箱:fuyouu#yandex.com[#换成@]投诉。我们会在15个工作日内删除。 但烦请转载时请标明出处:“本文转载于『浮游电影网』,原文地址:https://www.fuyouu.com/21213.html

评论吧骚年!

发表你的见解   

昵称*

E-mail*(建议输入,以便收到博主回复的提示邮件)

验证码*

您可以使用eMule或eMule Mod(Windows)、aMule(Win、Linux、Mac)等软件下载eD2k链接。。
eMule收藏集(.emulecollection)文件是您选中的所有链接的列表文件。eMule可以直接下载它们。
按住SHIFT键选择可以选中多个选择框。
可用文件名和大小选择器来选择文件。
文件名选择器帮您根据文件名称或后缀来选择文件。不分大小写。
符号使用:
和:空格( )、+
不包含:-
或:|
转义:一对英文引号("");
匹配开头:^
匹配结尾:$
例如:
选中所有名称中包含有“eMule”或“0.49c”字眼,但不包含有“exe”字眼的:emule|0.49c -exe
选中所有名称的开头是“eMule”,结尾是“0.49c”的:^emule 0.49c$
选中所有名称中带有“eMule 0.49c”的(必须是“eMule 0.49c”,中间没有别的字符,不能是“eMule fake 0.49c”),需要转义:"emule 0.49c"
大小选择器帮您根据文件大小选择文件。