当前位置: 首页 >> 欧美电影 >> 致命罗密欧[中英字幕].Romeo.Must.Die.2000.BluRay.1080p.DTS-HD.MA.5.1.x264-OPT 14.31GB >> 正文

致命罗密欧[中英字幕].Romeo.Must.Die.2000.BluRay.1080p.DTS-HD.MA.5.1.x264-OPT 14.31GB

2022年04月10日 19:51:33     电影发布:来源于网络     电影分类:欧美电影     评论(0)    

image.png

◎译 名 致命罗密欧 / 致命的罗密欧 / 致命英雄 / 罗密欧必死

◎片 名 Romeo Must Die

◎年 代 2000

◎产 地 美国

◎类 别 剧情 / 动作 / 爱情 / 惊悚 / 犯罪

◎语 言 英语 / 汉语普通话

◎上映日期 2000-03-20

◎IMDb链接 https://www.imdb.com/title/tt0165929/

◎豆瓣评分 6.1/10 (11982人评价)

◎豆瓣链接 https://movie.douban.com/subject/1297670/

◎片 长 115 分钟

◎导 演 安德泽·巴特科维卡 Andrzej Bartkowiak (id:1276546)

◎编 剧 米切尔·卡普勒 Mitchell Kapner (id:1326663)

◎演 员 李连杰 Jet Li (id:1025146)

阿丽雅 Aaliyah (id:1017836)

艾赛亚·华盛顿 Isaiah Washington (id:1025234)

王盛德 Russell Wong (id:1032117)

德尔罗伊·林多 Delroy Lindo (id:1040621)

D.B.伍德塞德 D.B. Woodside (id:1167096)

区亨利 Henry O (id:1023118)

Jon Kit Lee Jon Kit Lee (id:1106910)

爱德华多·巴莱里尼 Edoardo Ballerini (id:1066252)

安东尼·安德森 Anthony Anderson (id:1022670)

DMX DMX (id:1036560)

马修·哈里逊 Matthew Harrison (id:1036981)

特瑞·陈 Terry Chen (id:1004684)

Derek Lowe Derek Lowe (id:1116360)

拜伦·劳森 Byron Lawson (id:1110831)

本兹·安托万 Benz Antoine (id:1058949)

凯斯·达拉斯 Keith Dallas (id:1423832)

张铮 Tseng Chang (id:1329209)

Richard Yee Richard Yee (id:1166375)

柯林·富 Colin Foo (id:1283956)

兰斯·吉布森 Lance Gibson (id:1342282)

朴敏庆 Grace Park (id:1031936)

马诺·苏德 Manoj Sood (id:1155617)

Gaston Howard Gaston Howard (id:1286988)

克莱·方特诺特 Clay Donahue Fontenot (id:1283950)

阿隆索·奥亚祖恩 Alonso Oyarzun (id:1130753)

叶芳华 Fran?oise Yip (id:1049868)

阿尔文·桑德斯 Alvin Sanders (id:1146730)

威廉·S·泰勒 William S. Taylor (id:1350750)

大卫·科普 David Kopp (id:1106058)

Aaron Joseph Aaron Joseph (id:1113648)

坎迪斯·麦克卢尔 Kandyse McClure (id:1117565)

Jody Vance Jody Vance (id:1160410)

Larry Lam Larry Lam (id:1109236)

乔·西尔沃 Joel Silver (id:1010670)

Warren Carr Warren Carr (id:1042628)

Dan Cracchiolo Dan Cracchiolo (id:1006275)

Stanley Clarke Stanley Clarke (id:1013737)

格伦·麦克弗森 Glen MacPherson (id:1041789)

Derek Brechin Derek Brechin (id:1015378)

Lora Kennedy Lora Kennedy (id:1288398)

James Steuart James Steuart (id:1051677)

比尔·特雷扎基斯 Bill Terezakis (id:1299071)

Donna Bis Donna Bis (id:1278685)

康拉德·E·帕尔米萨诺 Conrad E. Palmisano (id:1048392)

Kathy Houghton Kathy Houghton (id:1286968)

Patrick Stark Patrick Stark (id:1160650)

丹尼尔·P·罗森 Daniel P. Rosen (id:1022069)

Barnaby Robson Barnaby Robson (id:1036046)

特拉维斯·鲍曼 Travis Baumann (id:1048779)

Justin Burdine Justin Burdine (id:1070623)

乔纳森·F·斯泰尔朗德 Jonathan F. Styrlund (id:1298589)

J·迈克尔·里瓦 J. Michael Riva (id:1009846)

林迪安 Dion Lam (id:1289289)

◎简 介

韩星(李连杰 饰)本来是香港的一名警察,但他的家族却掌管着美国一个华人犯罪集团,势力庞大。一次韩星为了替父亲顶罪,丢掉了工作,进入了香港的监狱服刑。服刑期间,韩星突然得知自己的亲生弟弟的死讯,悲痛不已的他成功越狱前往了美国寻找弟弟的死亡真相。所有的人都告诉韩星,弟弟的死是和他们家族对立的黑人帮派造成的,但韩星却隐隐觉得别有内情,于是他展开了调查。期间,韩星认识了美丽的女孩特蕾西(阿丽雅 Aaliyah 饰),原来特蕾西正是对立帮派的老大的女儿。不久,特蕾西的哥哥也被人谋杀了,同样不相信周围的人都一面之词的特蕾西和韩星一起展开了调查。最终,他们发现,真相原来很残忍。

  1. ##### MediaInfo ######

  2. General

  3. Unique ID : 203313907012230222141992740222378823579 (0x98F4D58BACCDE76602A8BCB77BF5CF9B)

  4. Complete name : Romeo.Must.Die.2000.BluRay.1080p.DTS-HD.MA.5.1.x264-HDH.mkv

  5. Format : Matroska

  6. Format version : Version 4

  7. File size : 14.3 GiB

  8. Duration : 1 h 55 min

  9. Overall bit rate mode : Variable

  10. Overall bit rate : 17.8 Mb/s

  11. Movie name : Romeo Must Die

  12. Encoded date : UTC 2022-04-09 00:48:04

  13. Writing application : mkvmerge v59.0.0 ('Shining Star') 64-bit

  14. Writing library : libebml v1.4.2 + libmatroska v1.6.4

  15. Cover : Yes

  16. Attachments : Cover.jpg

  17. Video

  18. ID : 1

  19. Format : AVC

  20. Format/Info : Advanced Video Codec

  21. Format profile : [email protected]

  22. Format settings : CABAC / 5 Ref Frames

  23. Format settings, CABAC : Yes

  24. Format settings, Reference frames : 5 frames

  25. Codec ID : V_MPEG4/ISO/AVC

  26. Duration : 1 h 55 min

  27. Bit rate : 13.5 Mb/s

  28. Width : 1 920 pixels

  29. Height : 800 pixels

  30. Display aspect ratio : 2.40:1

  31. Frame rate mode : Constant

  32. Frame rate : 23.976 (24000/1001/53354) FPS

  33. Color space : YUV

  34. Chroma subsampling : 4:2:0

  35. Bit depth : 8 bits

  36. Scan type : Progressive

  37. Bits/(Pixel*Frame) : 0.368

  38. Stream size : 10.9 GiB (76%)

  39. Writing library : x264 core 142 r2431+42 c69a006 tMod [[email protected]:2:0 X86_64]

  40. Encoding settings : cabac=1 / ref=5 / deblock=1:-3:-3 / analyse=0x3:0x113 / me=umh / subme=10 / psy=1 / fade_compensate=0.00 / psy_rd=1.00:0.05 / mixed_ref=1 / me_range=48 / chroma_me=1 / trellis=2 / 8x8dct=1 / cqm=0 / deadzone=21,11 / fast_pskip=0 / chroma_qp_offset=-2 / threads=72 / lookahead_threads=6 / sliced_threads=0 / nr=0 / decimate=1 / interlaced=0 / NTMzNTQ= / bluray_compat=0 / constrained_intra=0 / fgo=0 / bframes=8 / b_pyramid=2 / b_adapt=2 / b_bias=0 / direct=3 / weightb=1 / open_gop=0 / weightp=2 / keyint=250 / keyint_min=23 / NTMzNTQ=uuDQuD2mJt9fsCf / scenecut=40 / intra_refresh=0 / rc_lookahead=40 / rc=crf / mbtree=0 / crf=18.2000 / qcomp=0.60 / qpmin=0:0:0 / qpmax=69:69:69 / qpstep=4 / vbv_maxrate=40000 / vbv_bufsize=30000 / crf_max=0.0 / nal_hrd=none / filler=0 / NTMzNTQ=LmsMAP37EqsCpk / ip_ratio=1.40 / pb_ratio=1.30 / aq=3:0.80 / aq-sensitivity=10.00 / aq-factor=1.00:1.00:1.00 / aq2=0 / aq3=0

  41. Default : Yes

  42. Forced : No

  43. Color range : Limited

  44. Matrix coefficients : BT.709

  45. Audio

  46. ID : 2

  47. Format : DTS XLL

  48. Format/Info : Digital Theater Systems

  49. Commercial name : DTS-HD Master Audio

  50. Codec ID : A_DTS

  51. Duration : 1 h 55 min

  52. Bit rate mode : Variable

  53. Bit rate : 4 194 kb/s

  54. Channel(s) : 6 channels

  55. Channel layout : C L R Ls Rs LFE

  56. Sampling rate : 48.0 kHz

  57. Frame rate : 93.750 FPS (512 SPF)

  58. Bit depth : 24 bits

  59. Compression mode : Lossless

  60. Stream size : 3.37 GiB (24%)

  61. Language : English

  62. Default : Yes

  63. Forced : No

  64. Text #1

  65. ID : 3

  66. Format : PGS

  67. Muxing mode : zlib

  68. Codec ID : S_HDMV/PGS

  69. Codec ID/Info : Picture based subtitle format used on BDs/HD-DVDs

  70. Duration : 1 h 54 min

  71. Bit rate : 21.1 kb/s

  72. Count of elements : 2184

  73. Stream size : 17.3 MiB (0%)

  74. Language : English

  75. Default : Yes

  76. Forced : No

  77. Text #2

  78. ID : 4

  79. Format : PGS

  80. Muxing mode : zlib

  81. Codec ID : S_HDMV/PGS

  82. Codec ID/Info : Picture based subtitle format used on BDs/HD-DVDs

  83. Duration : 1 h 54 min

  84. Bit rate : 18.3 kb/s

  85. Count of elements : 2042

  86. Stream size : 15.0 MiB (0%)

  87. Language : French

  88. Default : Yes

  89. Forced : No

  90. Text #3

  91. ID : 5

  92. Format : PGS

  93. Muxing mode : zlib

  94. Codec ID : S_HDMV/PGS

  95. Codec ID/Info : Picture based subtitle format used on BDs/HD-DVDs

  96. Duration : 1 h 54 min

  97. Bit rate : 19.7 kb/s

  98. Count of elements : 2154

  99. Stream size : 16.1 MiB (0%)

  100. Language : Spanish

  101. Default : Yes

  102. Forced : No

  103. Text #4

  104. ID : 6

  105. Format : PGS

  106. Muxing mode : zlib

  107. Codec ID : S_HDMV/PGS

  108. Codec ID/Info : Picture based subtitle format used on BDs/HD-DVDs

  109. Duration : 1 h 54 min

  110. Bit rate : 20.1 kb/s

  111. Count of elements : 2160

  112. Stream size : 16.4 MiB (0%)

  113. Language : Spanish

  114. Default : Yes

  115. Forced : No

  116. Text #5

  117. ID : 7

  118. Format : PGS

  119. Muxing mode : zlib

  120. Codec ID : S_HDMV/PGS

  121. Codec ID/Info : Picture based subtitle format used on BDs/HD-DVDs

  122. Duration : 1 h 47 min

  123. Bit rate : 26.2 kb/s

  124. Count of elements : 1855

  125. Stream size : 20.1 MiB (0%)

  126. Title : 简体中字

  127. Language : Chinese

  128. Default : Yes

  129. Forced : No

  130. Text #6

  131. ID : 8

  132. Format : PGS

  133. Muxing mode : zlib

  134. Codec ID : S_HDMV/PGS

  135. Codec ID/Info : Picture based subtitle format used on BDs/HD-DVDs

  136. Duration : 1 h 47 min

  137. Bit rate : 27.1 kb/s

  138. Count of elements : 1855

  139. Stream size : 20.8 MiB (0%)

  140. Title : 繁体中字

  141. Language : Chinese

  142. Default : Yes

  143. Forced : No

  144. Text #7

  145. ID : 9

  146. Format : UTF-8

  147. Codec ID : S_TEXT/UTF8

  148. Codec ID/Info : UTF-8 Plain Text

  149. Duration : 1 h 47 min

  150. Bit rate : 32 b/s

  151. Count of elements : 1183

  152. Stream size : 25.2 KiB (0%)

  153. Title : 简体中字

  154. Language : Chinese

  155. Default : Yes

  156. Forced : No

  157. Text #8

  158. ID : 10

  159. Format : UTF-8

  160. Codec ID : S_TEXT/UTF8

  161. Codec ID/Info : UTF-8 Plain Text

  162. Duration : 1 h 47 min

  163. Bit rate : 32 b/s

  164. Count of elements : 1183

  165. Stream size : 25.2 KiB (0%)

  166. Title : 繁体中字

  167. Language : Chinese

  168. Default : Yes

  169. Forced : No

  170. Menu

  171. 00:00:00.000 : :第 01 章

  172. 00:02:38.367 : :第 02 章

  173. 00:07:15.560 : :第 03 章

  174. 00:11:07.125 : :第 04 章

  175. 00:13:12.625 : :第 05 章

  176. 00:15:02.026 : :第 06 章

  177. 00:16:57.683 : :第 07 章

  178. 00:18:46.292 : :第 08 章

  179. 00:21:11.020 : :第 09 章

  180. 00:22:36.355 : :第 10 章

  181. 00:27:25.227 : :第 11 章

  182. 00:29:09.289 : :第 12 章

  183. 00:30:58.315 : :第 13 章

  184. 00:33:52.322 : :第 14 章

  185. 00:36:12.087 : :第 15 章

  186. 00:39:40.211 : :第 16 章

  187. 00:42:30.506 : :第 17 章

  188. 00:44:34.380 : :第 18 章

  189. 00:47:22.298 : :第 19 章

  190. 00:48:59.186 : :第 20 章

  191. 00:50:47.461 : :第 21 章

  192. 00:54:46.241 : :第 22 章

  193. 00:56:32.681 : :第 23 章

  194. 01:00:40.595 : :第 24 章

  195. 01:03:14.249 : :第 25 章

  196. 01:05:33.888 : :第 26 章

  197. 01:09:48.559 : :第 27 章

  198. 01:12:52.535 : :第 28 章

  199. 01:14:24.085 : :第 29 章

  200. 01:17:53.502 : :第 30 章

  201. 01:21:09.281 : :第 31 章

  202. 01:25:29.291 : :第 32 章

  203. 01:29:56.600 : :第 33 章

  204. 01:34:36.713 : :第 34 章

  205. 01:37:07.405 : :第 35 章

  206. 01:40:55.216 : :第 36 章

  207. 01:43:13.979 : :第 37 章

  208. 01:47:47.419 : :第 38 章

  209. 01:49:59.635 : :第 39 章


文件下载


除非特别注明,本文『致命罗密欧[中英字幕].Romeo.Must.Die.2000.BluRay.1080p.DTS-HD.MA.5.1.x264-OPT 14.31GB』来源于互联网机器人自动抓取,非本站原创。 浮游电影网不对本文拥有版权,如有侵犯,请联系邮箱:fuyouu#yandex.com[#换成@]投诉。我们会在15个工作日内删除。 但烦请转载时请标明出处:“本文转载于『浮游电影网』,原文地址:https://www.fuyouu.com/21211.html

评论吧骚年!

发表你的见解   

昵称*

E-mail*(建议输入,以便收到博主回复的提示邮件)

验证码*

您可以使用eMule或eMule Mod(Windows)、aMule(Win、Linux、Mac)等软件下载eD2k链接。。
eMule收藏集(.emulecollection)文件是您选中的所有链接的列表文件。eMule可以直接下载它们。
按住SHIFT键选择可以选中多个选择框。
可用文件名和大小选择器来选择文件。
文件名选择器帮您根据文件名称或后缀来选择文件。不分大小写。
符号使用:
和:空格( )、+
不包含:-
或:|
转义:一对英文引号("");
匹配开头:^
匹配结尾:$
例如:
选中所有名称中包含有“eMule”或“0.49c”字眼,但不包含有“exe”字眼的:emule|0.49c -exe
选中所有名称的开头是“eMule”,结尾是“0.49c”的:^emule 0.49c$
选中所有名称中带有“eMule 0.49c”的(必须是“eMule 0.49c”,中间没有别的字符,不能是“eMule fake 0.49c”),需要转义:"emule 0.49c"
大小选择器帮您根据文件大小选择文件。