当前位置: 首页 >> 欧美电影 >> 烈血海底城[中英字幕].Leviathan.1989.Remastered.BluRay.1080p.DTS-HD.MA.5.1.x264-OPT 11.65GB >> 正文

烈血海底城[中英字幕].Leviathan.1989.Remastered.BluRay.1080p.DTS-HD.MA.5.1.x264-OPT 11.65GB

2022年04月10日 19:48:59     电影发布:来源于网络     电影分类:欧美电影     评论(0)    

烈血海底城[中英字幕].Leviathan.1989.Remastered.BluRay.1080p.DTS HD.MA.5.1.x264 OPT 11.65GB 科幻 恐怖 惊悚 欧美电影  第1张

◎译 名 烈血海底城

◎片 名 Leviathan

◎年 代 1989

◎产 地 美国 / 意大利

◎类 别 科幻 / 悬疑 / 惊悚 / 恐怖 / 冒险

◎语 言 英语

◎上映日期 1989-03-17

◎IMDb链接 https://www.imdb.com/title/tt0097737/

◎豆瓣评分 6.3/10 (950人评价)

◎豆瓣链接 https://movie.douban.com/subject/1295330/

◎片 长 98 分钟

◎导 演 乔治·P·科斯马图斯 George P. Cosmatos (id:1014181)

◎编 剧 大卫·韦伯·皮普尔斯 David Webb Peoples (id:1294259)

杰布·斯图尔特 Jeb Stuart (id:1005245)

◎演 员 阿曼达·佩斯 Amanda Pays (id:1055632)

彼得·威勒 Peter Weller (id:1010564)

汤姆·伍德鲁夫 Tom Woodruff Jr. (id:1301250)

Aurelio De Laurentiis Aurelio De Laurentiis (id:1282028)

杰瑞·高德史密斯 Jerry Goldsmith (id:1007116)

John F. Burnett John F. Burnett (id:1279675)

琳达·戈登 Lynda Gordon (id:1285187)

迈克·芬顿 Mike Fenton (id:1283570)

Pier Luigi Basile Pier Luigi Basile (id:1278043)

戴维·F·克拉森 David F. Klassen (id:1288673)

William Ladd Skinner William Ladd Skinner (id:1297738)

Franco Ceraolo Franco Ceraolo (id:1280353)

罗伯特·古尔德 Robert Gould (id:1285237)

乔什·罗森格兰特 John Rosengrant (id:1296098)

Marina Marin Marina Marin (id:1290992)

佐尔坦·埃雷克 Zoltan Elek (id:1283102)

Katalin Elek Katalin Elek (id:1283086)

阿尔多·锡格纳蒂 Aldo Signoretti (id:1297590)

David S. Williams Jr. David S. Williams Jr. (id:1300940)

David B. Sharp David B. Sharp (id:1297338)

罗伯特·哈布罗斯 Robert Habros (id:1285756)

Jurgen Heimann Jurgen Heimann (id:1286362)

Barry Nolan Barry Nolan (id:1293237)

◎简 介

三海矿物公司正在波罗地海深处进行一项为期90天的矿物开采活动,在海底探测过程中,巴兹(Daniel Stern 饰)因失去和母船的联系,忙打误撞发现一艘海底沉船。船员伊丽莎白(Amanda Pays 饰)奉命将巴兹带回,经托马斯博士证实,这是一艘名为“利维坦”的俄罗斯商船。

船员们在利维坦号上发现了几卷关于船员失踪事件的录影带,但对疏于酒精的巴兹等人来说,上好的伏特加更具吸引力。第二天起床,巴兹感到后背不适,8小时后离奇死亡。由此船员们才意识到,他们很可能将利维坦号上一种神秘恐怖的生物带了回来……

  1. ##### MediaInfo ######

  2. General

  3. Unique ID : 299301784186972913330925120488762684472 (0xE12B6D46872A58BF6239A4C976AAB438)

  4. Complete name : Leviathan.1989.Remastered.BluRay.1080p.DTS-HD.MA.5.1.x264-HDH.mkv

  5. Format : Matroska

  6. Format version : Version 4

  7. File size : 11.7 GiB

  8. Duration : 1 h 38 min

  9. Overall bit rate mode : Variable

  10. Overall bit rate : 17.0 Mb/s

  11. Movie name : Leviathan

  12. Encoded date : UTC 2022-04-09 01:37:11

  13. Writing application : mkvmerge v59.0.0 ('Shining Star') 64-bit

  14. Writing library : libebml v1.4.2 + libmatroska v1.6.4

  15. Cover : Yes

  16. Attachments : Cover.jpg

  17. Video

  18. ID : 1

  19. Format : AVC

  20. Format/Info : Advanced Video Codec

  21. Format profile : [email protected]

  22. Format settings : CABAC / 5 Ref Frames

  23. Format settings, CABAC : Yes

  24. Format settings, Reference frames : 5 frames

  25. Codec ID : V_MPEG4/ISO/AVC

  26. Duration : 1 h 38 min

  27. Bit rate : 13.3 Mb/s

  28. Width : 1 920 pixels

  29. Height : 820 pixels

  30. Display aspect ratio : 2.35:1

  31. Frame rate mode : Constant

  32. Frame rate : 23.976 (24000/1001/53354) FPS

  33. Color space : YUV

  34. Chroma subsampling : 4:2:0

  35. Bit depth : 8 bits

  36. Scan type : Progressive

  37. Bits/(Pixel*Frame) : 0.353

  38. Stream size : 9.12 GiB (78%)

  39. Writing library : x264 core 142 r2431+42 c69a006 tMod [[email protected]:2:0 X86_64]

  40. Encoding settings : cabac=1 / ref=5 / deblock=1:-3:-3 / analyse=0x3:0x113 / me=umh / subme=10 / psy=1 / fade_compensate=0.00 / psy_rd=1.00:0.05 / mixed_ref=1 / me_range=48 / chroma_me=1 / trellis=2 / 8x8dct=1 / cqm=0 / deadzone=21,11 / fast_pskip=0 / chroma_qp_offset=-2 / threads=72 / lookahead_threads=6 / sliced_threads=0 / nr=0 / decimate=1 / interlaced=0 / NTMzNTQ= / bluray_compat=0 / constrained_intra=0 / fgo=0 / bframes=8 / b_pyramid=2 / b_adapt=2 / b_bias=0 / direct=3 / weightb=1 / open_gop=0 / weightp=2 / keyint=250 / keyint_min=23 / NTMzNTQ=uuDQuD2mJt9fsCf / scenecut=40 / intra_refresh=0 / rc_lookahead=40 / rc=crf / mbtree=0 / crf=17.6000 / qcomp=0.60 / qpmin=0:0:0 / qpmax=69:69:69 / qpstep=4 / vbv_maxrate=40000 / vbv_bufsize=30000 / crf_max=0.0 / nal_hrd=none / filler=0 / NTMzNTQ=LmsMAP37EqsCpk / ip_ratio=1.40 / pb_ratio=1.30 / aq=3:0.80 / aq-sensitivity=10.00 / aq-factor=1.00:1.00:1.00 / aq2=0 / aq3=0

  41. Default : Yes

  42. Forced : No

  43. Color range : Limited

  44. Matrix coefficients : BT.709

  45. Audio

  46. ID : 2

  47. Format : DTS XLL

  48. Format/Info : Digital Theater Systems

  49. Commercial name : DTS-HD Master Audio

  50. Codec ID : A_DTS

  51. Duration : 1 h 38 min

  52. Bit rate mode : Variable

  53. Bit rate : 3 627 kb/s

  54. Channel(s) : 6 channels

  55. Channel layout : C L R Ls Rs LFE

  56. Sampling rate : 48.0 kHz

  57. Frame rate : 93.750 FPS (512 SPF)

  58. Bit depth : 24 bits

  59. Compression mode : Lossless

  60. Stream size : 2.48 GiB (21%)

  61. Language : English

  62. Default : Yes

  63. Forced : No

  64. Text #1

  65. ID : 3

  66. Format : PGS

  67. Muxing mode : zlib

  68. Codec ID : S_HDMV/PGS

  69. Codec ID/Info : Picture based subtitle format used on BDs/HD-DVDs

  70. Duration : 1 h 30 min

  71. Bit rate : 34.7 kb/s

  72. Count of elements : 2064

  73. Stream size : 22.6 MiB (0%)

  74. Language : English

  75. Default : Yes

  76. Forced : No

  77. Text #2

  78. ID : 4

  79. Format : PGS

  80. Muxing mode : zlib

  81. Codec ID : S_HDMV/PGS

  82. Codec ID/Info : Picture based subtitle format used on BDs/HD-DVDs

  83. Duration : 1 h 34 min

  84. Bit rate : 35.9 kb/s

  85. Count of elements : 1274

  86. Stream size : 24.2 MiB (0%)

  87. Title : 简体中字

  88. Language : Chinese

  89. Default : Yes

  90. Forced : No

  91. Text #3

  92. ID : 5

  93. Format : PGS

  94. Muxing mode : zlib

  95. Codec ID : S_HDMV/PGS

  96. Codec ID/Info : Picture based subtitle format used on BDs/HD-DVDs

  97. Duration : 1 h 34 min

  98. Bit rate : 37.3 kb/s

  99. Count of elements : 1274

  100. Stream size : 25.1 MiB (0%)

  101. Title : 繁体中字

  102. Language : Chinese

  103. Default : Yes

  104. Forced : No

  105. Text #4

  106. ID : 6

  107. Format : UTF-8

  108. Codec ID : S_TEXT/UTF8

  109. Codec ID/Info : UTF-8 Plain Text

  110. Duration : 1 h 34 min

  111. Bit rate : 46 b/s

  112. Count of elements : 1032

  113. Stream size : 32.2 KiB (0%)

  114. Title : 简体中字

  115. Language : Chinese

  116. Default : Yes

  117. Forced : No

  118. Text #5

  119. ID : 7

  120. Format : UTF-8

  121. Codec ID : S_TEXT/UTF8

  122. Codec ID/Info : UTF-8 Plain Text

  123. Duration : 1 h 34 min

  124. Bit rate : 46 b/s

  125. Count of elements : 1032

  126. Stream size : 32.2 KiB (0%)

  127. Title : 繁体中字

  128. Language : Chinese

  129. Default : Yes

  130. Forced : No

  131. Menu

  132. 00:00:00.000 : :第 01 章

  133. 00:09:03.543 : :第 02 章

  134. 00:20:53.252 : :第 03 章

  135. 00:30:06.680 : :第 04 章

  136. 00:37:13.648 : :第 05 章

  137. 00:42:23.374 : :第 06 章

  138. 00:47:19.211 : :第 07 章

  139. 00:55:52.808 : :第 08 章

  140. 01:03:30.432 : :第 09 章

  141. 01:09:26.162 : :第 10 章

  142. 01:17:29.854 : :第 11 章

  143. 01:29:53.388 : :第 12 章


文件下载


除非特别注明,本文『烈血海底城[中英字幕].Leviathan.1989.Remastered.BluRay.1080p.DTS-HD.MA.5.1.x264-OPT 11.65GB』来源于互联网机器人自动抓取,非本站原创。 浮游电影网不对本文拥有版权,如有侵犯,请联系邮箱:fuyouu#yandex.com[#换成@]投诉。我们会在15个工作日内删除。 但烦请转载时请标明出处:“本文转载于『浮游电影网』,原文地址:https://www.fuyouu.com/21210.html

评论吧骚年!

发表你的见解   

昵称*

E-mail*(建议输入,以便收到博主回复的提示邮件)

验证码*

您可以使用eMule或eMule Mod(Windows)、aMule(Win、Linux、Mac)等软件下载eD2k链接。。
eMule收藏集(.emulecollection)文件是您选中的所有链接的列表文件。eMule可以直接下载它们。
按住SHIFT键选择可以选中多个选择框。
可用文件名和大小选择器来选择文件。
文件名选择器帮您根据文件名称或后缀来选择文件。不分大小写。
符号使用:
和:空格( )、+
不包含:-
或:|
转义:一对英文引号("");
匹配开头:^
匹配结尾:$
例如:
选中所有名称中包含有“eMule”或“0.49c”字眼,但不包含有“exe”字眼的:emule|0.49c -exe
选中所有名称的开头是“eMule”,结尾是“0.49c”的:^emule 0.49c$
选中所有名称中带有“eMule 0.49c”的(必须是“eMule 0.49c”,中间没有别的字符,不能是“eMule fake 0.49c”),需要转义:"emule 0.49c"
大小选择器帮您根据文件大小选择文件。