当前位置: 首页 >> 港台电影 >> 少年黄飞鸿之铁马骝[国语音轨/中英字幕].Iron.Monkey.1993.1080p.BluRay.DTS-HD.MA.5.1.x264-OPT 14.17GB >> 正文

少年黄飞鸿之铁马骝[国语音轨/中英字幕].Iron.Monkey.1993.1080p.BluRay.DTS-HD.MA.5.1.x264-OPT 14.17GB

2022年04月09日 21:19:49     电影发布:来源于网络     电影分类:港台电影     评论(0)    

少年黄飞鸿之铁马骝[国语音轨/中英字幕].Iron.Monkey.1993.1080p.BluRay.DTS HD.MA.5.1.x264 OPT 14.17GB 犯罪 动作 喜剧 港台电影  第1张

◎译 名 少年黄飞鸿之铁马骝 / 少年黄飞鸿之铁猴子(台) / Iron Monkey

◎片 名 少年黃飛鴻之鐵馬骝

◎年 代 1993

◎产 地 中国香港

◎类 别 喜剧 / 动作 / 犯罪 / 武侠 / 古装

◎语 言 粤语

◎上映日期 1993-09-03

◎IMDb链接 https://www.imdb.com/title/tt0108148/

◎豆瓣评分 7.6/10 (21077人评价)

◎豆瓣链接 https://movie.douban.com/subject/1294488/

◎片 长 90 分钟

◎导 演 袁和平 Woo-ping Yuen (id:1275026)

◎编 剧 邓碧燕 Elsa Tang (id:1321260)

刘大木 Tai-Mok Lau (id:1354545)

徐克 Hark Tsui (id:1007152)

◎演 员 甄子丹 Donnie Yen (id:1025194)

王静莹 Jane Wang (id:1274668)

于荣光 Ringo Yu (id:1274556)

李辉 Hui Li (id:1384279)

曾思敏 Angie Tsang (id:1398071)

任世官 Shi-Kwan Yen (id:1165667)

黄霑 James Wong (id:1008091)

袁信义 Shun-Yee Yuen (id:1301576)

李晖 Fai Li (id:1451312)

秦贵宝 Kwai Po Chun (id:1417957)

林志泰 Chi Tai Lam (id:1433961)

邓泰和 Tai Wo Tang (id:1394346)

段伟伦 William Duan (id:1419931)

张凤妮 Betsy Cheung (id:1319440)

徐克 Hark Tsui (id:1007152)

何丽嫦 Lorraine Ho (id:1418364)

黄岳泰 Arthur Wong (id:1301185)

昆汀·塔伦蒂诺 Quentin Tarantino (id:1054444)

胡伟立 Wai Lap Wu (id:1275249)

黄岳泰 Arthur Wong (id:1301185)

林安儿 Angie Lam (id:1038152)

周少龙 Shao Lung Chou (id:1344862)

谷轩昭 Huan-Chiu Ku (id:1289063)

何添 Tim Ho (id:1408607)

◎简 介

清朝末年,官吏贪腐,民不聊生,在浙江地方上,有一位蒙面侠士“铁猴子”,两年来劫富济贫,令卖官鬻爵的历任知府叫苦不迭。铁猴子在白天的身份是大夫杨天淳(于荣光 饰),杨大夫妙手仁心,深得乡邻爱戴。知府为抓捕铁猴子,不惜拷打众多不相干群众,路经此地的黄麒英(甄子丹 饰)、黄飞鸿父子不慎卷入其中,知府见黄麒英身手过人,扣押飞鸿要挟其捉拿铁猴子,黄麒英与铁猴子交手后惺惺相惜。不久朝廷钦差抵浙,听闻铁猴子“作乱”之举后施展大力金刚掌将其击伤,原来这钦差的真实身份是少林叛徒衍空(任世官 饰),身为少林弟子的黄麒英联合铁猴子,誓为少林清理门户。

◎获奖情况 (共1项)

第13届香港电影金像奖 (1994)

最佳动作设计(提名)

  1. ##### MediaInfo ######

  2. General

  3. Unique ID : 194730228902078939430673151008124110325 (0x927FAD8A5454F36EAC011A16BC4705F5)

  4. Complete name : Iron.Monkey.1993.1080p.BluRay.DTS-HD.MA.5.1.x264-HDH.mkv

  5. Format : Matroska

  6. Format version : Version 2

  7. File size : 14.2 GiB

  8. Duration : 1 h 30 min

  9. Overall bit rate mode : Variable

  10. Overall bit rate : 22.5 Mb/s

  11. Encoded date : UTC 2018-07-21 09:41:47

  12. Writing application : mkvmerge v8.5.2 ('Crosses') 32bit

  13. Writing library : libebml v1.3.3 + libmatroska v1.4.4

  14. Video

  15. ID : 1

  16. Format : AVC

  17. Format/Info : Advanced Video Codec

  18. Format profile : [email protected]

  19. Format settings : CABAC / 4 Ref Frames

  20. Format settings, CABAC : Yes

  21. Format settings, Reference frames : 4 frames

  22. Codec ID : V_MPEG4/ISO/AVC

  23. Duration : 1 h 30 min

  24. Bit rate : 17.5 Mb/s

  25. Width : 1 920 pixels

  26. Height : 1 040 pixels

  27. Display aspect ratio : 1.85:1

  28. Frame rate mode : Constant

  29. Frame rate : 23.976 (24000/1001/53354) FPS

  30. Color space : YUV

  31. Chroma subsampling : 4:2:0

  32. Bit depth : 8 bits

  33. Scan type : Progressive

  34. Bits/(Pixel*Frame) : 0.366

  35. Stream size : 11.1 GiB (78%)

  36. Writing library : x264 core 142 r2431+42 c69a006 tMod [[email protected]:2:0 X86_64]

  37. Encoding settings : cabac=1 / ref=4 / deblock=1:-3:-3 / analyse=0x3:0x113 / me=umh / subme=10 / psy=1 / fade_compensate=0.00 / psy_rd=1.00:0.05 / mixed_ref=1 / me_range=48 / chroma_me=1 / trellis=2 / 8x8dct=1 / cqm=0 / deadzone=21,11 / fast_pskip=0 / chroma_qp_offset=-2 / threads=48 / lookahead_threads=8 / sliced_threads=0 / nr=0 / decimate=1 / interlaced=0 / NTMzNTQ= / bluray_compat=0 / constrained_intra=0 / fgo=0 / bframes=8 / b_pyramid=2 / b_adapt=2 / b_bias=0 / direct=3 / weightb=1 / open_gop=0 / weightp=2 / keyint=250 / keyint_min=23 / NTMzNTQ=uuDQuD2mJt9fsCf / scenecut=40 / intra_refresh=0 / rc_lookahead=40 / rc=crf / mbtree=0 / crf=21.1000 / qcomp=0.60 / qpmin=0:0:0 / qpmax=69:69:69 / qpstep=4 / vbv_maxrate=40000 / vbv_bufsize=30000 / crf_max=0.0 / nal_hrd=none / filler=0 / NTMzNTQ=LmsMAP37EqsCpk / ip_ratio=1.40 / pb_ratio=1.30 / aq=3:0.80 / aq-sensitivity=10.00 / aq-factor=1.00:1.00:1.00 / aq2=0 / aq3=0

  38. Default : Yes

  39. Forced : No

  40. Color range : Limited

  41. Matrix coefficients : BT.709

  42. Audio #1

  43. ID : 2

  44. Format : DTS XLL

  45. Format/Info : Digital Theater Systems

  46. Commercial name : DTS-HD Master Audio

  47. Codec ID : A_DTS

  48. Duration : 1 h 30 min

  49. Bit rate mode : Variable

  50. Bit rate : 3 967 kb/s

  51. Channel(s) : 6 channels

  52. Channel layout : C L R Ls Rs LFE

  53. Sampling rate : 48.0 kHz

  54. Frame rate : 93.750 FPS (512 SPF)

  55. Bit depth : 24 bits

  56. Compression mode : Lossless

  57. Stream size : 2.50 GiB (18%)

  58. Language : Chinese

  59. Default : Yes

  60. Forced : No

  61. Audio #2

  62. ID : 3

  63. Format : AC-3

  64. Format/Info : Audio Coding 3

  65. Commercial name : Dolby Digital

  66. Codec ID : A_AC3

  67. Duration : 1 h 30 min

  68. Bit rate mode : Constant

  69. Bit rate : 448 kb/s

  70. Channel(s) : 1 channel

  71. Channel layout : C

  72. Sampling rate : 48.0 kHz

  73. Frame rate : 31.250 FPS (1536 SPF)

  74. Compression mode : Lossy

  75. Stream size : 289 MiB (2%)

  76. Language : Chinese

  77. Service kind : Complete Main

  78. Default : No

  79. Forced : No

  80. Audio #3

  81. ID : 4

  82. Format : AC-3

  83. Format/Info : Audio Coding 3

  84. Commercial name : Dolby Digital

  85. Codec ID : A_AC3

  86. Duration : 1 h 30 min

  87. Bit rate mode : Constant

  88. Bit rate : 448 kb/s

  89. Channel(s) : 2 channels

  90. Channel layout : L R

  91. Sampling rate : 48.0 kHz

  92. Frame rate : 31.250 FPS (1536 SPF)

  93. Compression mode : Lossy

  94. Stream size : 289 MiB (2%)

  95. Language : Chinese

  96. Service kind : Complete Main

  97. Default : No

  98. Forced : No

  99. Text #1

  100. ID : 5

  101. Format : PGS

  102. Muxing mode : zlib

  103. Codec ID : S_HDMV/PGS

  104. Codec ID/Info : Picture based subtitle format used on BDs/HD-DVDs

  105. Duration : 1 h 27 min

  106. Bit rate : 12.6 kb/s

  107. Count of elements : 2184

  108. Stream size : 7.85 MiB (0%)

  109. Language : English

  110. Default : Yes

  111. Forced : No

  112. Text #2

  113. ID : 6

  114. Format : PGS

  115. Muxing mode : zlib

  116. Codec ID : S_HDMV/PGS

  117. Codec ID/Info : Picture based subtitle format used on BDs/HD-DVDs

  118. Duration : 1 h 27 min

  119. Bit rate : 13.9 kb/s

  120. Count of elements : 2404

  121. Stream size : 8.65 MiB (0%)

  122. Language : English

  123. Default : No

  124. Forced : No

  125. Text #3

  126. ID : 7

  127. Format : PGS

  128. Muxing mode : zlib

  129. Codec ID : S_HDMV/PGS

  130. Codec ID/Info : Picture based subtitle format used on BDs/HD-DVDs

  131. Duration : 1 h 26 min

  132. Bit rate : 17.2 kb/s

  133. Count of elements : 2296

  134. Stream size : 10.6 MiB (0%)

  135. Language : Chinese

  136. Default : No

  137. Forced : No

  138. Text #4

  139. ID : 8

  140. Format : PGS

  141. Muxing mode : zlib

  142. Codec ID : S_HDMV/PGS

  143. Codec ID/Info : Picture based subtitle format used on BDs/HD-DVDs

  144. Duration : 1 h 26 min

  145. Bit rate : 17.5 kb/s

  146. Count of elements : 2296

  147. Stream size : 10.8 MiB (0%)

  148. Language : Chinese

  149. Default : No

  150. Forced : No

  151. Menu

  152. 00:00:00.000 : en:00:00:00.000

  153. 00:07:54.724 : en:00:07:54.724

  154. 00:14:17.774 : en:00:14:17.774

  155. 00:26:11.069 : en:00:26:11.069

  156. 00:34:10.340 : en:00:34:10.340

  157. 00:41:40.540 : en:00:41:40.540

  158. 00:48:33.911 : en:00:48:33.911

  159. 00:53:44.304 : en:00:53:44.304

  160. 00:58:55.657 : en:00:58:55.657

  161. 01:08:08.209 : en:01:08:08.209

  162. 01:13:50.760 : en:01:13:50.760

  163. 01:28:03.111 : en:01:28:03.111


复制代码



文件下载


除非特别注明,本文『少年黄飞鸿之铁马骝[国语音轨/中英字幕].Iron.Monkey.1993.1080p.BluRay.DTS-HD.MA.5.1.x264-OPT 14.17GB』来源于互联网机器人自动抓取,非本站原创。 浮游电影网不对本文拥有版权,如有侵犯,请联系邮箱:fuyouu#yandex.com[#换成@]投诉。我们会在15个工作日内删除。 但烦请转载时请标明出处:“本文转载于『浮游电影网』,原文地址:https://www.fuyouu.com/21202.html

评论吧骚年!

发表你的见解   

昵称*

E-mail*(建议输入,以便收到博主回复的提示邮件)

验证码*

您可以使用eMule或eMule Mod(Windows)、aMule(Win、Linux、Mac)等软件下载eD2k链接。。
eMule收藏集(.emulecollection)文件是您选中的所有链接的列表文件。eMule可以直接下载它们。
按住SHIFT键选择可以选中多个选择框。
可用文件名和大小选择器来选择文件。
文件名选择器帮您根据文件名称或后缀来选择文件。不分大小写。
符号使用:
和:空格( )、+
不包含:-
或:|
转义:一对英文引号("");
匹配开头:^
匹配结尾:$
例如:
选中所有名称中包含有“eMule”或“0.49c”字眼,但不包含有“exe”字眼的:emule|0.49c -exe
选中所有名称的开头是“eMule”,结尾是“0.49c”的:^emule 0.49c$
选中所有名称中带有“eMule 0.49c”的(必须是“eMule 0.49c”,中间没有别的字符,不能是“eMule fake 0.49c”),需要转义:"emule 0.49c"
大小选择器帮您根据文件大小选择文件。