当前位置: 首页 >> 国产电影 >> 月半爱丽丝[国语配音/中文字幕].Oversize.Love.2020.1080p.WEB-DL.H265.AAC-CTRLWEB 3.26GB >> 正文

月半爱丽丝[国语配音/中文字幕].Oversize.Love.2020.1080p.WEB-DL.H265.AAC-CTRLWEB 3.26GB

2022年04月09日 20:56:31     电影发布:来源于网络     电影分类:国产电影     评论(0)    

月半爱丽丝[国语配音/中文字幕].Oversize.Love.2020.1080p.WEB DL.H265.AAC CTRLWEB 3.26GB 奇幻 爱情 喜剧 国产电影  第1张

◎译 名 月半爱丽丝 / Oversize Love

◎年 代 2020

◎产 地 中国大陆

◎类 别 喜剧 / 爱情 / 奇幻

◎语 言 汉语普通话

◎上映日期 2020-10-30(中国大陆)

◎IMDb链接 https://www.imdb.com/title/tt11575350/

◎豆瓣评分 3.4/10 (23999人评价)

◎豆瓣链接 https://movie.douban.com/subject/30389258/

◎片 长 104分钟

◎导 演 张林子 Linzi Zhang (id:1319252)

◎编 剧 赵默言 Momo (id:1394286)

孙思雨 Siyu Sun (id:1387137)

朱鹮 Huan Zhu (id:1458231)

◎演 员 关晓彤 Xiaotong Guan (id:1276032)

黄景瑜 Johnny Huang (id:1354442)

官鸿 Darren Chen (id:1375409)

卢杉 Shan Lu (id:1336362)

潘一飞 Payne (id:1363554)

昌隆 Long Chang (id:1365413)

杨冬麒 Dongqi Yang (id:1403936)

范明 Ming Fan (id:1274655)

赵英俊 Yingjun Zhao (id:1315474)

罗家英 Kar-Ying Law (id:1108968)

嘉泽 Claire (id:1437777)

吕晨悦 Chenyue Lv (id:1448022)

周韵茹 Yunru Zhou (id:1365527)

梁家桐 Jiatong Liang (id:1435805)

田爽 Shuang Tian (id:1378160)

曲萌 Ace Qu (id:1406485)

金依萌 Eva Jin (id:1274853)

刘扬 Yang Liu (id:1409618)

蔡彬一 Binyi Cai (id:1404785)

白金 Kim Bai (id:1394578)

廉洁 Jie Lian (id:1417589)

曾茂军 Maojun Zeng (id:1397615)

池宇峰 Yufeng Chi (id:1442530)

曾映雪 Helen Zeng (id:1429647)

高小阳 Xiaoyang Gao (id:1408650)

秦鼎昌 Ting-chang Chin (id:1309961)

黄美清 Max Huang (id:1331964)

郑嘉政 Chia-cheng Cheng (id:1442707)

魏湘容 Hsiang-Jung Wei (id:1331669)

◎简 介

胖女孩林晓曦(关晓彤 饰)性格开朗大方,她和音乐制作人韩冰(黄景瑜 饰)是多年好友,两人友达以上,恋爱未满。在一次奇幻的经历后,林晓曦出人意料地变身成为美丽的爱丽丝,并得以接近自己的偶像黄可(官鸿 饰)。虽然赢得了偶像的关注,但夹在青梅竹马与偶像之间时,林晓曦渐渐明白了什么……

◎获奖情况 (共2项)

第12届金扫帚奖 (2021)

最令人失望影片

最令人失望男演员

└──黄景瑜 (id:1354442)

  1. ##### MediaInfo ######

  2. General

  3. Complete name : Oversize.Love.2020.1080p.WEB-DL.H265.AAC-CHDWEB.mp4

  4. Format : MPEG-4

  5. Format profile : Base Media

  6. Codec ID : isom (isom/iso2/mp41)

  7. File size : 3.26 GiB

  8. Duration : 1 h 44 min

  9. Overall bit rate mode : Variable

  10. Overall bit rate : 4 483 kb/s

  11. Recorded date : 2022-04-08T13:26:00.8642174+08:00

  12. Writing application : Lavf59.16.100

  13. Video

  14. ID : 1

  15. Format : HEVC

  16. Format/Info : High Efficiency Video Coding

  17. Format profile : [email protected]@High

  18. Codec ID : hev1

  19. Codec ID/Info : High Efficiency Video Coding

  20. Duration : 1 h 44 min

  21. Bit rate : 4 352 kb/s

  22. Width : 1 920 pixels

  23. Height : 800 pixels

  24. Display aspect ratio : 2.40:1

  25. Frame rate mode : Constant

  26. Frame rate : 24.000 FPS

  27. Color space : YUV

  28. Chroma subsampling : 4:2:0

  29. Bit depth : 8 bits

  30. Bits/(Pixel*Frame) : 0.118

  31. Stream size : 3.16 GiB (97%)

  32. Codec configuration box : hvcC

  33. Audio

  34. ID : 2

  35. Format : AAC LC

  36. Format/Info : Advanced Audio Codec Low Complexity

  37. Codec ID : mp4a-40-2

  38. Duration : 1 h 44 min

  39. Bit rate mode : Variable

  40. Bit rate : 124 kb/s

  41. Maximum bit rate : 126 kb/s / 126 kb/s

  42. Channel(s) : 2 channels

  43. Channel layout : L R

  44. Sampling rate : 44.1 kHz

  45. Frame rate : 43.066 FPS (1024 SPF)

  46. Compression mode : Lossy

  47. Stream size : 92.5 MiB (3%)

  48. Default : Yes

  49. Alternate group : 1


复制代码



文件下载


除非特别注明,本文『月半爱丽丝[国语配音/中文字幕].Oversize.Love.2020.1080p.WEB-DL.H265.AAC-CTRLWEB 3.26GB』来源于互联网机器人自动抓取,非本站原创。 浮游电影网不对本文拥有版权,如有侵犯,请联系邮箱:fuyouu#yandex.com[#换成@]投诉。我们会在15个工作日内删除。 但烦请转载时请标明出处:“本文转载于『浮游电影网』,原文地址:https://www.fuyouu.com/21198.html

评论吧骚年!

发表你的见解   

昵称*

E-mail*(建议输入,以便收到博主回复的提示邮件)

验证码*

您可以使用eMule或eMule Mod(Windows)、aMule(Win、Linux、Mac)等软件下载eD2k链接。。
eMule收藏集(.emulecollection)文件是您选中的所有链接的列表文件。eMule可以直接下载它们。
按住SHIFT键选择可以选中多个选择框。
可用文件名和大小选择器来选择文件。
文件名选择器帮您根据文件名称或后缀来选择文件。不分大小写。
符号使用:
和:空格( )、+
不包含:-
或:|
转义:一对英文引号("");
匹配开头:^
匹配结尾:$
例如:
选中所有名称中包含有“eMule”或“0.49c”字眼,但不包含有“exe”字眼的:emule|0.49c -exe
选中所有名称的开头是“eMule”,结尾是“0.49c”的:^emule 0.49c$
选中所有名称中带有“eMule 0.49c”的(必须是“eMule 0.49c”,中间没有别的字符,不能是“eMule fake 0.49c”),需要转义:"emule 0.49c"
大小选择器帮您根据文件大小选择文件。