当前位置: 首页 >> 欧美电影 >> 平行爱情[中英字幕].The.In.Between.2022.1080p.Netflix.WEB-DL.H264.DDP5.1-HDBWEB 10.29GB >> 正文

平行爱情[中英字幕].The.In.Between.2022.1080p.Netflix.WEB-DL.H264.DDP5.1-HDBWEB 10.29GB

2022年04月09日 20:55:15     电影发布:来源于网络     电影分类:欧美电影     评论(0)    

平行爱情[中英字幕].The.In.Between.2022.1080p.Netflix.WEB DL.H264.DDP5.1 HDBWEB 10.29GB 科幻 爱情 剧情 欧美电影  第1张

◎译 名 平行爱情

◎片 名 The In Between

◎年 代 2022

◎产 地 美国

◎类 别 剧情 / 爱情 / 科幻

◎语 言 英语

◎上映日期 2022-02-11(美国网络)

◎IMDb链接 https://www.imdb.com/title/tt8851148/

◎豆瓣链接 https://movie.douban.com/subject/35709881/

◎导 演 阿里·波辛 Arie Posin (id:1305007)

◎编 剧 马克·科雷恩 Marc Klein (id:1324618)

◎演 员 乔伊·金 Joey King (id:1022713)

凯尔·艾伦 Kyle Allen (id:1389150)

塞莱斯特·奥康纳 Celeste O'Connor (id:1447216)

金·迪肯斯 Kim Dickens (id:1087137)

约翰·奥提兹 John Ortiz (id:1018110)

杰弗里·文森特·帕里塞 Jeffrey Vincent Parise (id:1293947)

艾普尔·帕克·琼斯 April Parker Jones (id:1416068)

尼古拉斯·斯塔格尔 Nicholas Stargel (id:1244906)

利安德·苏莱曼 Leander Suleiman (id:1383443)

Donna Biscoe Donna Biscoe (id:1064515)

安妮特·切里 Anette Cseri (id:1468021)

◎简 介

在一场夺去男友生命的车祸中幸存下来后,一个十几岁的女孩相信他正试图从另一个世界与她重新建立联系。

  1. ##### MediaInfo ######

  2. General

  3. Unique ID : 261019261907086204817675414429489455117 (0xC45E7B33A67ABAC39715C75E4588600D)

  4. Complete name : 平行爱情.The.In.Between.2022.1080p.Netflix.WEB-DL.H264.DDP5.1-OurTV.mkv

  5. Format : Matroska

  6. Format version : Version 4

  7. File size : 10.3 GiB

  8. Duration : 1 h 57 min

  9. Overall bit rate mode : Variable

  10. Overall bit rate : 12.5 Mb/s

  11. Movie name : 生死交界

  12. Description : 少女在一場悲慘意外中失去摯愛,心碎至極,漸漸認為男友在從幽冥之界向她傳遞訊息。

  13. Writing application : Lavf58.76.100

  14. Writing library : Lavf58.76.100

  15. ErrorDetectionType : Per level 1

  16. DATE : 2022

  17. Video #1

  18. ID : 1

  19. Format : AVC

  20. Format/Info : Advanced Video Codec

  21. Format profile : [email protected]

  22. Format settings : CABAC / 4 Ref Frames

  23. Format settings, CABAC : Yes

  24. Format settings, Reference frames : 4 frames

  25. Codec ID : V_MPEG4/ISO/AVC

  26. Duration : 1 h 57 min

  27. Bit rate mode : Variable

  28. Maximum bit rate : 20.0 Mb/s

  29. Width : 1 920 pixels

  30. Height : 1 080 pixels

  31. Display aspect ratio : 16:9

  32. Frame rate mode : Constant

  33. Frame rate : 23.976 (24000/1001/53354) FPS

  34. Color space : YUV

  35. Chroma subsampling : 4:2:0

  36. Bit depth : 8 bits

  37. Scan type : Progressive

  38. Title : [email protected]

  39. Writing library : x264 core 148 r2727 7d026e8

  40. Encoding settings : cabac=1 / ref=4 / deblock=1:0:0 / analyse=0x3:0x111 / me=umh / subme=10 / psy=1 / psy_rd=1.00:0.00 / mixed_ref=1 / me_range=120 / chroma_me=1 / trellis=2 / 8x8dct=1 / cqm=0 / deadzone=21,11 / fast_pskip=1 / chroma_qp_offset=-2 / threads=8 / lookahead_threads=2 / sliced_threads=0 / nr=0 / decimate=1 / interlaced=0 / NTMzNTQ= / bluray_compat=0 / stitchable=1 / constrained_intra=0 / bframes=16 / b_pyramid=2 / b_adapt=2 / b_bias=0 / direct=3 / weightb=1 / open_gop=0 / weightp=2 / keyint=240 / keyint_min=121 / scenecut=0 / intra_refresh=0 / rc_lookahead=240 / rc=crf / mbtree=1 / crf=18.0 / qcomp=0.50 / qpmin=6 / qpmax=51 / qpstep=4 / vbv_maxrate=20000 / vbv_bufsize=25000 / crf_max=0.0 / nal_hrd=vbr / filler=0 / NTMzNTQ=LmsMAP37EqsCpk / ip_ratio=1.40 / aq=1:0.80

  41. Default : Yes

  42. Forced : No

  43. VENDOR_ID : [0][0][0][0]

  44. Video #2

  45. ID : 2

  46. Format : PNG

  47. Format/Info : Portable Network Graphic

  48. Codec ID : V_MS/VFW/FOURCC / MPNG

  49. Codec ID/Info : Motion PNG

  50. Duration : 123 ms

  51. Width : 1 920 pixels

  52. Height : 1 080 pixels

  53. Display aspect ratio : 16:9

  54. Frame rate mode : Constant

  55. Frame rate : 25.000 FPS

  56. Compression mode : Lossless

  57. Writing library : Lavc58.134.100 png

  58. Default : No

  59. Forced : No

  60. Color range : Full

  61. Audio #1

  62. ID : 3

  63. Format : E-AC-3

  64. Format/Info : Enhanced AC-3

  65. Commercial name : Dolby Digital Plus

  66. Codec ID : A_EAC3

  67. Duration : 1 h 57 min

  68. Bit rate mode : Constant

  69. Bit rate : 640 kb/s

  70. Channel(s) : 6 channels

  71. Channel layout : L R C LFE Ls Rs

  72. Sampling rate : 48.0 kHz

  73. Frame rate : 31.250 FPS (1536 SPF)

  74. Bit depth : 32 bits

  75. Compression mode : Lossy

  76. Stream size : 537 MiB (5%)

  77. Title : 英文 [原始]

  78. Language : English

  79. Service kind : Complete Main

  80. Default : Yes

  81. Forced : No

  82. VENDOR_ID : [0][0][0][0]

  83. Audio #2

  84. ID : 4

  85. Format : E-AC-3

  86. Format/Info : Enhanced AC-3

  87. Commercial name : Dolby Digital Plus

  88. Codec ID : A_EAC3

  89. Duration : 1 h 57 min

  90. Bit rate mode : Constant

  91. Bit rate : 640 kb/s

  92. Channel(s) : 6 channels

  93. Channel layout : L R C LFE Ls Rs

  94. Sampling rate : 48.0 kHz

  95. Frame rate : 31.250 FPS (1536 SPF)

  96. Bit depth : 32 bits

  97. Compression mode : Lossy

  98. Stream size : 537 MiB (5%)

  99. Title : 西班牙

  100. Language : Spanish

  101. Service kind : Complete Main

  102. Default : No

  103. Forced : No

  104. VENDOR_ID : [0][0][0][0]

  105. Audio #3

  106. ID : 5

  107. Format : E-AC-3

  108. Format/Info : Enhanced AC-3

  109. Commercial name : Dolby Digital Plus

  110. Codec ID : A_EAC3

  111. Duration : 1 h 57 min

  112. Bit rate mode : Constant

  113. Bit rate : 640 kb/s

  114. Channel(s) : 6 channels

  115. Channel layout : L R C LFE Ls Rs

  116. Sampling rate : 48.0 kHz

  117. Frame rate : 31.250 FPS (1536 SPF)

  118. Bit depth : 32 bits

  119. Compression mode : Lossy

  120. Stream size : 537 MiB (5%)

  121. Title : 歐洲西班牙文

  122. Language : Spanish

  123. Service kind : Complete Main

  124. Default : No

  125. Forced : No

  126. VENDOR_ID : [0][0][0][0]

  127. Audio #4

  128. ID : 6

  129. Format : E-AC-3

  130. Format/Info : Enhanced AC-3

  131. Commercial name : Dolby Digital Plus

  132. Codec ID : A_EAC3

  133. Duration : 1 h 57 min

  134. Bit rate mode : Constant

  135. Bit rate : 640 kb/s

  136. Channel(s) : 6 channels

  137. Channel layout : L R C LFE Ls Rs

  138. Sampling rate : 48.0 kHz

  139. Frame rate : 31.250 FPS (1536 SPF)

  140. Bit depth : 32 bits

  141. Compression mode : Lossy

  142. Stream size : 537 MiB (5%)

  143. Title : 法文

  144. Language : French

  145. Service kind : Complete Main

  146. Default : No

  147. Forced : No

  148. VENDOR_ID : [0][0][0][0]

  149. Audio #5

  150. ID : 7

  151. Format : E-AC-3

  152. Format/Info : Enhanced AC-3

  153. Commercial name : Dolby Digital Plus

  154. Codec ID : A_EAC3

  155. Duration : 1 h 57 min

  156. Bit rate mode : Constant

  157. Bit rate : 640 kb/s

  158. Channel(s) : 6 channels

  159. Channel layout : L R C LFE Ls Rs

  160. Sampling rate : 48.0 kHz

  161. Frame rate : 31.250 FPS (1536 SPF)

  162. Bit depth : 32 bits

  163. Compression mode : Lossy

  164. Stream size : 537 MiB (5%)

  165. Title : 印地文

  166. Language : Hindi

  167. Service kind : Complete Main

  168. Default : No

  169. Forced : No

  170. VENDOR_ID : [0][0][0][0]

  171. Audio #6

  172. ID : 8

  173. Format : E-AC-3

  174. Format/Info : Enhanced AC-3

  175. Commercial name : Dolby Digital Plus

  176. Codec ID : A_EAC3

  177. Duration : 1 h 57 min

  178. Bit rate mode : Constant

  179. Bit rate : 640 kb/s

  180. Channel(s) : 6 channels

  181. Channel layout : L R C LFE Ls Rs

  182. Sampling rate : 48.0 kHz

  183. Frame rate : 31.250 FPS (1536 SPF)

  184. Bit depth : 32 bits

  185. Compression mode : Lossy

  186. Stream size : 537 MiB (5%)

  187. Title : 匈牙利文

  188. Language : Hungarian

  189. Service kind : Complete Main

  190. Default : No

  191. Forced : No

  192. VENDOR_ID : [0][0][0][0]

  193. Audio #7

  194. ID : 9

  195. Format : E-AC-3

  196. Format/Info : Enhanced AC-3

  197. Commercial name : Dolby Digital Plus

  198. Codec ID : A_EAC3

  199. Duration : 1 h 57 min

  200. Bit rate mode : Constant

  201. Bit rate : 640 kb/s

  202. Channel(s) : 6 channels

  203. Channel layout : L R C LFE Ls Rs

  204. Sampling rate : 48.0 kHz

  205. Frame rate : 31.250 FPS (1536 SPF)

  206. Bit depth : 32 bits

  207. Compression mode : Lossy

  208. Stream size : 537 MiB (5%)

  209. Title : 印尼語

  210. Language : Indonesian

  211. Service kind : Complete Main

  212. Default : No

  213. Forced : No

  214. VENDOR_ID : [0][0][0][0]

  215. Audio #8

  216. ID : 10

  217. Format : E-AC-3

  218. Format/Info : Enhanced AC-3

  219. Commercial name : Dolby Digital Plus

  220. Codec ID : A_EAC3

  221. Duration : 1 h 57 min

  222. Bit rate mode : Constant

  223. Bit rate : 640 kb/s

  224. Channel(s) : 6 channels

  225. Channel layout : L R C LFE Ls Rs

  226. Sampling rate : 48.0 kHz

  227. Frame rate : 31.250 FPS (1536 SPF)

  228. Bit depth : 32 bits

  229. Compression mode : Lossy

  230. Stream size : 537 MiB (5%)

  231. Title : 義大利文

  232. Language : Italian

  233. Service kind : Complete Main

  234. Default : No

  235. Forced : No

  236. VENDOR_ID : [0][0][0][0]

  237. Audio #9

  238. ID : 11

  239. Format : E-AC-3

  240. Format/Info : Enhanced AC-3

  241. Commercial name : Dolby Digital Plus

  242. Codec ID : A_EAC3

  243. Duration : 1 h 57 min

  244. Bit rate mode : Constant

  245. Bit rate : 640 kb/s

  246. Channel(s) : 6 channels

  247. Channel layout : L R C LFE Ls Rs

  248. Sampling rate : 48.0 kHz

  249. Frame rate : 31.250 FPS (1536 SPF)

  250. Bit depth : 32 bits

  251. Compression mode : Lossy

  252. Stream size : 537 MiB (5%)

  253. Title : 日文

  254. Language : Japanese

  255. Service kind : Complete Main

  256. Default : No

  257. Forced : No

  258. VENDOR_ID : [0][0][0][0]

  259. Audio #10

  260. ID : 12

  261. Format : E-AC-3

  262. Format/Info : Enhanced AC-3

  263. Commercial name : Dolby Digital Plus

  264. Codec ID : A_EAC3

  265. Duration : 1 h 57 min

  266. Bit rate mode : Constant

  267. Bit rate : 640 kb/s

  268. Channel(s) : 6 channels

  269. Channel layout : L R C LFE Ls Rs

  270. Sampling rate : 48.0 kHz

  271. Frame rate : 31.250 FPS (1536 SPF)

  272. Bit depth : 32 bits

  273. Compression mode : Lossy

  274. Stream size : 537 MiB (5%)

  275. Title : 波蘭文

  276. Language : Polish

  277. Service kind : Complete Main

  278. Default : No

  279. Forced : No

  280. VENDOR_ID : [0][0][0][0]

  281. Audio #11

  282. ID : 13

  283. Format : E-AC-3

  284. Format/Info : Enhanced AC-3

  285. Commercial name : Dolby Digital Plus

  286. Codec ID : A_EAC3

  287. Duration : 1 h 57 min

  288. Bit rate mode : Constant

  289. Bit rate : 640 kb/s

  290. Channel(s) : 6 channels

  291. Channel layout : L R C LFE Ls Rs

  292. Sampling rate : 48.0 kHz

  293. Frame rate : 31.250 FPS (1536 SPF)

  294. Bit depth : 32 bits

  295. Compression mode : Lossy

  296. Stream size : 537 MiB (5%)

  297. Title : 巴西葡萄牙文

  298. Language : Portuguese

  299. Service kind : Complete Main

  300. Default : No

  301. Forced : No

  302. VENDOR_ID : [0][0][0][0]

  303. Audio #12

  304. ID : 14

  305. Format : E-AC-3

  306. Format/Info : Enhanced AC-3

  307. Commercial name : Dolby Digital Plus

  308. Codec ID : A_EAC3

  309. Duration : 1 h 57 min

  310. Bit rate mode : Constant

  311. Bit rate : 640 kb/s

  312. Channel(s) : 6 channels

  313. Channel layout : L R C LFE Ls Rs

  314. Sampling rate : 48.0 kHz

  315. Frame rate : 31.250 FPS (1536 SPF)

  316. Bit depth : 32 bits

  317. Compression mode : Lossy

  318. Stream size : 537 MiB (5%)

  319. Title : 俄文

  320. Language : Russian

  321. Service kind : Complete Main

  322. Default : No

  323. Forced : No

  324. VENDOR_ID : [0][0][0][0]

  325. Audio #13

  326. ID : 15

  327. Format : E-AC-3

  328. Format/Info : Enhanced AC-3

  329. Commercial name : Dolby Digital Plus

  330. Codec ID : A_EAC3

  331. Duration : 1 h 57 min

  332. Bit rate mode : Constant

  333. Bit rate : 640 kb/s

  334. Channel(s) : 6 channels

  335. Channel layout : L R C LFE Ls Rs

  336. Sampling rate : 48.0 kHz

  337. Frame rate : 31.250 FPS (1536 SPF)

  338. Bit depth : 32 bits

  339. Compression mode : Lossy

  340. Stream size : 537 MiB (5%)

  341. Title : 泰文

  342. Language : Thai

  343. Service kind : Complete Main

  344. Default : No

  345. Forced : No

  346. VENDOR_ID : [0][0][0][0]

  347. Audio #14

  348. ID : 16

  349. Format : E-AC-3

  350. Format/Info : Enhanced AC-3

  351. Commercial name : Dolby Digital Plus

  352. Codec ID : A_EAC3

  353. Duration : 1 h 57 min

  354. Bit rate mode : Constant

  355. Bit rate : 640 kb/s

  356. Channel(s) : 6 channels

  357. Channel layout : L R C LFE Ls Rs

  358. Sampling rate : 48.0 kHz

  359. Frame rate : 31.250 FPS (1536 SPF)

  360. Bit depth : 32 bits

  361. Compression mode : Lossy

  362. Stream size : 537 MiB (5%)

  363. Title : 土耳其文

  364. Language : Turkish

  365. Service kind : Complete Main

  366. Default : No

  367. Forced : No

  368. VENDOR_ID : [0][0][0][0]

  369. Text #1

  370. ID : 17

  371. Format : UTF-8

  372. Codec ID : S_TEXT/UTF8

  373. Codec ID/Info : UTF-8 Plain Text

  374. Duration : 1 h 55 min

  375. Title : 阿拉伯文

  376. Writing library : Lavc58.134.100 srt

  377. Language : Arabic

  378. Default : Yes

  379. Forced : No

  380. Text #2

  381. ID : 18

  382. Format : UTF-8

  383. Codec ID : S_TEXT/UTF8

  384. Codec ID/Info : UTF-8 Plain Text

  385. Duration : 1 h 55 min

  386. Title : 捷克文

  387. Writing library : Lavc58.134.100 srt

  388. Language : Czech

  389. Default : No

  390. Forced : No

  391. Text #3

  392. ID : 19

  393. Format : UTF-8

  394. Codec ID : S_TEXT/UTF8

  395. Codec ID/Info : UTF-8 Plain Text

  396. Duration : 1 h 55 min

  397. Title : 丹麥文

  398. Writing library : Lavc58.134.100 srt

  399. Language : Danish

  400. Default : No

  401. Forced : No

  402. Text #4

  403. ID : 20

  404. Format : UTF-8

  405. Codec ID : S_TEXT/UTF8

  406. Codec ID/Info : UTF-8 Plain Text

  407. Duration : 1 h 55 min

  408. Title : 德文

  409. Writing library : Lavc58.134.100 srt

  410. Language : German

  411. Default : No

  412. Forced : No

  413. Text #5

  414. ID : 21

  415. Format : UTF-8

  416. Codec ID : S_TEXT/UTF8

  417. Codec ID/Info : UTF-8 Plain Text

  418. Duration : 1 h 55 min

  419. Title : 希臘文

  420. Writing library : Lavc58.134.100 srt

  421. Language : Greek

  422. Default : No

  423. Forced : No

  424. Text #6

  425. ID : 22

  426. Format : UTF-8

  427. Codec ID : S_TEXT/UTF8

  428. Codec ID/Info : UTF-8 Plain Text

  429. Duration : 1 h 55 min

  430. Title : 英文 [CC]

  431. Writing library : Lavc58.134.100 srt

  432. Language : English

  433. Default : No

  434. Forced : No

  435. Text #7

  436. ID : 23

  437. Format : UTF-8

  438. Codec ID : S_TEXT/UTF8

  439. Codec ID/Info : UTF-8 Plain Text

  440. Duration : 1 h 55 min

  441. Title : 西班牙文

  442. Writing library : Lavc58.134.100 srt

  443. Language : Spanish

  444. Default : No

  445. Forced : No

  446. Text #8

  447. ID : 24

  448. Format : UTF-8

  449. Codec ID : S_TEXT/UTF8

  450. Codec ID/Info : UTF-8 Plain Text

  451. Duration : 1 h 55 min

  452. Title : 歐洲西班牙文

  453. Writing library : Lavc58.134.100 srt

  454. Language : Spanish

  455. Default : No

  456. Forced : No

  457. Text #9

  458. ID : 25

  459. Format : UTF-8

  460. Codec ID : S_TEXT/UTF8

  461. Codec ID/Info : UTF-8 Plain Text

  462. Duration : 1 h 55 min

  463. Title : 芬蘭文

  464. Writing library : Lavc58.134.100 srt

  465. Language : Finnish

  466. Default : No

  467. Forced : No

  468. Text #10

  469. ID : 26

  470. Format : UTF-8

  471. Codec ID : S_TEXT/UTF8

  472. Codec ID/Info : UTF-8 Plain Text

  473. Duration : 1 h 55 min

  474. Title : 法文

  475. Writing library : Lavc58.134.100 srt

  476. Language : French

  477. Default : No

  478. Forced : No

  479. Text #11

  480. ID : 27

  481. Format : UTF-8

  482. Codec ID : S_TEXT/UTF8

  483. Codec ID/Info : UTF-8 Plain Text

  484. Duration : 1 h 55 min

  485. Title : 希伯來文

  486. Writing library : Lavc58.134.100 srt

  487. Language : Hebrew

  488. Default : No

  489. Forced : No

  490. Text #12

  491. ID : 28

  492. Format : UTF-8

  493. Codec ID : S_TEXT/UTF8

  494. Codec ID/Info : UTF-8 Plain Text

  495. Duration : 1 h 55 min

  496. Title : 克羅埃西亞文

  497. Writing library : Lavc58.134.100 srt

  498. Language : Croatian

  499. Default : No

  500. Forced : No

  501. Text #13

  502. ID : 29

  503. Format : UTF-8

  504. Codec ID : S_TEXT/UTF8

  505. Codec ID/Info : UTF-8 Plain Text

  506. Duration : 1 h 55 min

  507. Title : 匈牙利文

  508. Writing library : Lavc58.134.100 srt

  509. Language : Hungarian

  510. Default : No

  511. Forced : No

  512. Text #14

  513. ID : 30

  514. Format : UTF-8

  515. Codec ID : S_TEXT/UTF8

  516. Codec ID/Info : UTF-8 Plain Text

  517. Duration : 1 h 55 min

  518. Title : 印尼語

  519. Writing library : Lavc58.134.100 srt

  520. Language : Indonesian

  521. Default : No

  522. Forced : No

  523. Text #15

  524. ID : 31

  525. Format : UTF-8

  526. Codec ID : S_TEXT/UTF8

  527. Codec ID/Info : UTF-8 Plain Text

  528. Duration : 1 h 55 min

  529. Title : 義大利文

  530. Writing library : Lavc58.134.100 srt

  531. Language : Italian

  532. Default : No

  533. Forced : No

  534. Text #16

  535. ID : 32

  536. Format : UTF-8

  537. Codec ID : S_TEXT/UTF8

  538. Codec ID/Info : UTF-8 Plain Text

  539. Duration : 1 h 55 min

  540. Title : 日文

  541. Writing library : Lavc58.134.100 srt

  542. Language : Japanese

  543. Default : No

  544. Forced : No

  545. Text #17

  546. ID : 33

  547. Format : UTF-8

  548. Codec ID : S_TEXT/UTF8

  549. Codec ID/Info : UTF-8 Plain Text

  550. Duration : 1 h 55 min

  551. Title : 韓文

  552. Writing library : Lavc58.134.100 srt

  553. Language : Korean

  554. Default : No

  555. Forced : No

  556. Text #18

  557. ID : 34

  558. Format : UTF-8

  559. Codec ID : S_TEXT/UTF8

  560. Codec ID/Info : UTF-8 Plain Text

  561. Duration : 1 h 55 min

  562. Title : 馬來文

  563. Writing library : Lavc58.134.100 srt

  564. Language : Malay

  565. Default : No

  566. Forced : No

  567. Text #19

  568. ID : 35

  569. Format : UTF-8

  570. Codec ID : S_TEXT/UTF8

  571. Codec ID/Info : UTF-8 Plain Text

  572. Duration : 1 h 55 min

  573. Title : 挪威文

  574. Writing library : Lavc58.134.100 srt

  575. Language : Norwegian Bokmal

  576. Default : No

  577. Forced : No

  578. Text #20

  579. ID : 36

  580. Format : UTF-8

  581. Codec ID : S_TEXT/UTF8

  582. Codec ID/Info : UTF-8 Plain Text

  583. Duration : 1 h 55 min

  584. Title : 荷蘭文

  585. Writing library : Lavc58.134.100 srt

  586. Language : Dutch

  587. Default : No

  588. Forced : No

  589. Text #21

  590. ID : 37

  591. Format : UTF-8

  592. Codec ID : S_TEXT/UTF8

  593. Codec ID/Info : UTF-8 Plain Text

  594. Duration : 1 h 55 min

  595. Title : 波蘭文

  596. Writing library : Lavc58.134.100 srt

  597. Language : Polish

  598. Default : No

  599. Forced : No

  600. Text #22

  601. ID : 38

  602. Format : UTF-8

  603. Codec ID : S_TEXT/UTF8

  604. Codec ID/Info : UTF-8 Plain Text

  605. Duration : 1 h 55 min

  606. Title : 葡萄牙文

  607. Writing library : Lavc58.134.100 srt

  608. Language : Portuguese

  609. Default : No

  610. Forced : No

  611. Text #23

  612. ID : 39

  613. Format : UTF-8

  614. Codec ID : S_TEXT/UTF8

  615. Codec ID/Info : UTF-8 Plain Text

  616. Duration : 1 h 55 min

  617. Title : 巴西葡萄牙文

  618. Writing library : Lavc58.134.100 srt

  619. Language : Portuguese

  620. Default : No

  621. Forced : No

  622. Text #24

  623. ID : 40

  624. Format : UTF-8

  625. Codec ID : S_TEXT/UTF8

  626. Codec ID/Info : UTF-8 Plain Text

  627. Duration : 1 h 55 min

  628. Title : 羅馬尼亞文

  629. Writing library : Lavc58.134.100 srt

  630. Language : Romanian

  631. Default : No

  632. Forced : No

  633. Text #25

  634. ID : 41

  635. Format : UTF-8

  636. Codec ID : S_TEXT/UTF8

  637. Codec ID/Info : UTF-8 Plain Text

  638. Duration : 1 h 55 min

  639. Title : 俄文

  640. Writing library : Lavc58.134.100 srt

  641. Language : Russian

  642. Default : No

  643. Forced : No

  644. Text #26

  645. ID : 42

  646. Format : UTF-8

  647. Codec ID : S_TEXT/UTF8

  648. Codec ID/Info : UTF-8 Plain Text

  649. Duration : 1 h 55 min

  650. Title : 瑞典文

  651. Writing library : Lavc58.134.100 srt

  652. Language : Swedish

  653. Default : No

  654. Forced : No

  655. Text #27

  656. ID : 43

  657. Format : UTF-8

  658. Codec ID : S_TEXT/UTF8

  659. Codec ID/Info : UTF-8 Plain Text

  660. Duration : 1 h 55 min

  661. Title : 泰文

  662. Writing library : Lavc58.134.100 srt

  663. Language : Thai

  664. Default : No

  665. Forced : No

  666. Text #28

  667. ID : 44

  668. Format : UTF-8

  669. Codec ID : S_TEXT/UTF8

  670. Codec ID/Info : UTF-8 Plain Text

  671. Duration : 1 h 55 min

  672. Title : 土耳其文

  673. Writing library : Lavc58.134.100 srt

  674. Language : Turkish

  675. Default : No

  676. Forced : No

  677. Text #29

  678. ID : 45

  679. Format : UTF-8

  680. Codec ID : S_TEXT/UTF8

  681. Codec ID/Info : UTF-8 Plain Text

  682. Duration : 1 h 55 min

  683. Title : 烏克蘭文

  684. Writing library : Lavc58.134.100 srt

  685. Language : Ukrainian

  686. Default : No

  687. Forced : No

  688. Text #30

  689. ID : 46

  690. Format : UTF-8

  691. Codec ID : S_TEXT/UTF8

  692. Codec ID/Info : UTF-8 Plain Text

  693. Duration : 1 h 55 min

  694. Title : 越南文

  695. Writing library : Lavc58.134.100 srt

  696. Language : Vietnamese

  697. Default : No

  698. Forced : No

  699. Text #31

  700. ID : 47

  701. Format : UTF-8

  702. Codec ID : S_TEXT/UTF8

  703. Codec ID/Info : UTF-8 Plain Text

  704. Duration : 1 h 55 min

  705. Title : 簡體中文

  706. Writing library : Lavc58.134.100 srt

  707. Language : Chinese

  708. Default : No

  709. Forced : No

  710. Text #32

  711. ID : 48

  712. Format : UTF-8

  713. Codec ID : S_TEXT/UTF8

  714. Codec ID/Info : UTF-8 Plain Text

  715. Duration : 1 h 55 min

  716. Title : 繁體中文

  717. Writing library : Lavc58.134.100 srt

  718. Language : Chinese

  719. Default : No

  720. Forced : No


复制代码



文件下载


除非特别注明,本文『平行爱情[中英字幕].The.In.Between.2022.1080p.Netflix.WEB-DL.H264.DDP5.1-HDBWEB 10.29GB』来源于互联网机器人自动抓取,非本站原创。 浮游电影网不对本文拥有版权,如有侵犯,请联系邮箱:fuyouu#yandex.com[#换成@]投诉。我们会在15个工作日内删除。 但烦请转载时请标明出处:“本文转载于『浮游电影网』,原文地址:https://www.fuyouu.com/21197.html

评论吧骚年!

发表你的见解   

昵称*

E-mail*(建议输入,以便收到博主回复的提示邮件)

验证码*

您可以使用eMule或eMule Mod(Windows)、aMule(Win、Linux、Mac)等软件下载eD2k链接。。
eMule收藏集(.emulecollection)文件是您选中的所有链接的列表文件。eMule可以直接下载它们。
按住SHIFT键选择可以选中多个选择框。
可用文件名和大小选择器来选择文件。
文件名选择器帮您根据文件名称或后缀来选择文件。不分大小写。
符号使用:
和:空格( )、+
不包含:-
或:|
转义:一对英文引号("");
匹配开头:^
匹配结尾:$
例如:
选中所有名称中包含有“eMule”或“0.49c”字眼,但不包含有“exe”字眼的:emule|0.49c -exe
选中所有名称的开头是“eMule”,结尾是“0.49c”的:^emule 0.49c$
选中所有名称中带有“eMule 0.49c”的(必须是“eMule 0.49c”,中间没有别的字符,不能是“eMule fake 0.49c”),需要转义:"emule 0.49c"
大小选择器帮您根据文件大小选择文件。