当前位置: 首页 >> 国产电影 >> 一号目标[国语配音/中文字幕].The.Primary.Target.2014.2160p.WEB-DL.H265.AAC-CTRLWEB 2.30GB >> 正文

一号目标[国语配音/中文字幕].The.Primary.Target.2014.2160p.WEB-DL.H265.AAC-CTRLWEB 2.30GB

2022年04月09日 20:51:59     电影发布:来源于网络     电影分类:国产电影     评论(0)    

一号目标[国语配音/中文字幕].The.Primary.Target.2014.2160p.WEB DL.H265.AAC CTRLWEB 2.30GB 悬疑 动作 剧情 国产电影  第1张

◎译 名 一号目标 / 梅园岁月 / Who is Undercover / The Primary Target

◎年 代 2014

◎产 地 中国大陆

◎类 别 剧情 / 动作 / 悬疑

◎语 言 汉语普通话

◎上映日期 2014-05-23(中国大陆)

◎IMDb链接 https://www.imdb.com/title/tt3234906/

◎豆瓣评分 5.7/10 (1458人评价)

◎豆瓣链接 https://movie.douban.com/subject/24298770/

◎片 长 108分钟

◎导 演 翟俊杰 Junjie Zhai (id:1314923)

翟小兴 Xiaoxing Zhai (id:1325777)

◎编 剧 姜滇 Dian Jiang (id:1337905)

董哲 Zhe Dong (id:1330757)

翟俊杰 Junjie Zhai (id:1314923)

◎演 员 蒋勤勤 Qinqin Jiang (id:1052229)

刘小锋 Xiaofeng Liu (id:1314315)

孙茜 Qian Sun (id:1318082)

张瑶 Yao Zhang (id:1318734)

穆雷克 Murray Clive (id:1324088)

张晨光 Morning Chang (id:1275270)

果靖霖 Jinglin Guo (id:1274914)

林栋甫 Dongfu Lin (id:1275700)

刘欣 Xin Liu (id:1276158)

黄薇 Wei Huang (id:1317413)

翟万臣 Wanchen Zhai (id:1318266)

薛山 Shan Xue (id:1323069)

孙维民 Weimin Sun (id:1316990)

倪大红 Dahong Ni (id:1274306)

侯勇 Yong Hou (id:1274228)

陈喆伦 Zhelun Chen (id:1374384)

柳素英 Elyse Ribbons (id:1341215)

安得路 Andrew Lane Cawthon (id:1417122)

秦隽哲 Junzhe Qin (id:1376936)

陈国富 Kuo-fu Chen (id:1075862)

◎简 介

1946年,国内局势变幻动荡,内战一触即发。一拨38 人的顶尖军事精英正启航赴美,然而一本意外遗失的笔记,揭露了这份名单中存在卧底。在特工遍布的南京,美蒋特务暗中勾结,计划除掉名单中的卧底 “一号目标”。两军围绕“谁是卧底”进行着一场惊心动魄的博弈。潜伏暗处的“一号目标”何时现身?能否扭转内战乾坤?生死攸关的暗战较量,令人窒息……

◎获奖情况 (共2项)

第30届中国电影金鸡奖 (2015)

最佳改编剧本(提名)

最佳男主角(提名)

└──孙维民 (id:1316990)

  1. ##### MediaInfo ######

  2. General

  3. Complete name : The.Primary.Target.2014.2160p.WEB-DL.H265.AAC-CHDWEB.mp4

  4. Format : MPEG-4

  5. Format profile : Base Media

  6. Codec ID : isom (isom/iso2/mp41)

  7. File size : 2.30 GiB

  8. Duration : 1 h 42 min

  9. Overall bit rate : 3 223 kb/s

  10. Recorded date : 2022-04-08T13:11:22.1652370+08:00

  11. Writing application : Lavf59.16.100

  12. Video

  13. ID : 1

  14. Format : HEVC

  15. Format/Info : High Efficiency Video Coding

  16. Format profile : [email protected]@Main

  17. Codec ID : hev1

  18. Codec ID/Info : High Efficiency Video Coding

  19. Duration : 1 h 42 min

  20. Bit rate : 3 026 kb/s

  21. Width : 3 840 pixels

  22. Height : 2 160 pixels

  23. Display aspect ratio : 16:9

  24. Frame rate mode : Constant

  25. Frame rate : 25.000 FPS

  26. Color space : YUV

  27. Chroma subsampling : 4:2:0

  28. Bit depth : 8 bits

  29. Bits/(Pixel*Frame) : 0.015

  30. Stream size : 2.16 GiB (94%)

  31. Codec configuration box : hvcC

  32. Audio

  33. ID : 2

  34. Format : AAC LC

  35. Format/Info : Advanced Audio Codec Low Complexity

  36. Codec ID : mp4a-40-2

  37. Duration : 1 h 42 min

  38. Bit rate mode : Constant

  39. Bit rate : 192 kb/s

  40. Channel(s) : 2 channels

  41. Channel layout : L R

  42. Sampling rate : 44.1 kHz

  43. Frame rate : 43.066 FPS (1024 SPF)

  44. Compression mode : Lossy

  45. Stream size : 139 MiB (6%)

  46. Default : Yes

  47. Alternate group : 1


复制代码



文件下载


除非特别注明,本文『一号目标[国语配音/中文字幕].The.Primary.Target.2014.2160p.WEB-DL.H265.AAC-CTRLWEB 2.30GB』来源于互联网机器人自动抓取,非本站原创。 浮游电影网不对本文拥有版权,如有侵犯,请联系邮箱:fuyouu#yandex.com[#换成@]投诉。我们会在15个工作日内删除。 但烦请转载时请标明出处:“本文转载于『浮游电影网』,原文地址:https://www.fuyouu.com/21195.html

评论吧骚年!

发表你的见解   

昵称*

E-mail*(建议输入,以便收到博主回复的提示邮件)

验证码*

您可以使用eMule或eMule Mod(Windows)、aMule(Win、Linux、Mac)等软件下载eD2k链接。。
eMule收藏集(.emulecollection)文件是您选中的所有链接的列表文件。eMule可以直接下载它们。
按住SHIFT键选择可以选中多个选择框。
可用文件名和大小选择器来选择文件。
文件名选择器帮您根据文件名称或后缀来选择文件。不分大小写。
符号使用:
和:空格( )、+
不包含:-
或:|
转义:一对英文引号("");
匹配开头:^
匹配结尾:$
例如:
选中所有名称中包含有“eMule”或“0.49c”字眼,但不包含有“exe”字眼的:emule|0.49c -exe
选中所有名称的开头是“eMule”,结尾是“0.49c”的:^emule 0.49c$
选中所有名称中带有“eMule 0.49c”的(必须是“eMule 0.49c”,中间没有别的字符,不能是“eMule fake 0.49c”),需要转义:"emule 0.49c"
大小选择器帮您根据文件大小选择文件。