当前位置: 首页 >> 欧美电影 >> 黑衣人:全球追缉[国英多音轨/简体字幕].Men.in.Black.International.2160p.UHD.Bluray.HDR10.x265.Atmos.TrueHD.7.1-PAGE 27 >> 正文

黑衣人:全球追缉[国英多音轨/简体字幕].Men.in.Black.International.2160p.UHD.Bluray.HDR10.x265.Atmos.TrueHD.7.1-PAGE 27

2022年04月09日 20:48:26     电影发布:来源于网络     电影分类:欧美电影     评论(0)    

黑衣人:全球追缉[国英多音轨/简体字幕].Men.in.Black.International.2160p.UHD.Bluray.HDR10.x265.Atmos.TrueHD.7.1 PAGE 27 科幻 动作 喜剧 欧美电影  第1张

◎译 名 黑衣人:全球追缉 / MIB星际战警:跨国行动(台) / 黑超特警组:反转世界(港) / 黑衣人外传 / 黑衣人4 / 黑衣人23 / 黑超特警队4 / 黑衣人:国际守护者 / Men in Black 4 / Men in Black IV / MIB 23 / MIB 4

◎片 名 Men in Black International

◎年 代 2019

◎产 地 美国

◎类 别 喜剧 / 动作 / 科幻

◎语 言 英语

◎上映日期 2019-06-14(美国/中国大陆) / 2019-06-12(中国台湾)

◎IMDb链接 https://www.imdb.com/title/tt2283336/

◎豆瓣评分 5.5/10 (156233人评价)

◎豆瓣链接 https://movie.douban.com/subject/19971676/

◎片 长 115分钟

◎导 演 F·加里·格雷 F. Gary Gray (id:1009396)

◎编 剧 劳威尔·坎宁安 Lowell Cunningham (id:1018693)

马特·霍洛维 Matt Holloway (id:1286819)

阿特·马库姆 Art Marcum (id:1306770)

◎演 员 克里斯·海姆斯沃斯 Chris Hemsworth (id:1021959)

泰莎·汤普森 Tessa Thompson (id:1027395)

丽贝卡·弗格森 Rebecca Ferguson (id:1088314)

库梅尔·南贾尼 Kumail Nanjiani (id:1334517)

拉菲·斯波 Rafe Spall (id:1032169)

艾玛·汤普森 Emma Thompson (id:1054514)

连姆·尼森 Liam Neeson (id:1031220)

戴维娜·西塔拉姆 Davina Sitaram (id:1407303)

纳西尔·贾玛 Nasir Jama (id:1397749)

维克托里娅·菲斯 Viktorija Faith (id:1407304)

佩内洛普·卡普迪雅 Penelope Kapudija (id:1407305)

斯蒂芬·怀特 Stephen Wight (id:1169666)

安纳托·陶布曼 Anatole Taubman (id:1016717)

露丝·霍洛克斯 Ruth Horrocks (id:1397361)

贝恩·科拉科 Bern Colla?o (id:1394212)

马西·哈里尔 Marcy Harriell (id:1389107)

希滕·珀泰尔 Hiten Patel (id:1392995)

通恰伊·古奈什 Tuncay Gunes (id:1391308)

艾德里安·阿尔瓦拉多 Adrian Alvarado (id:1213190)

史蒂芬·萨姆森 Stephen Samson (id:1145184)

曼迪娅·弗罗里 Mandeiya Flory (id:1396333)

黄渤 Bo Huang (id:1274242)

伊隆·马斯克 Elon Musk (id:1348829)

劳伦·布尔乔亚 Laurent Bourgeois (id:1418073)

拉瑞·布尔乔亚 Larry Bourgeois (id:1418074)

凯万·诺瓦克 Kayvan Novak (id:1193055)

斯宾塞·怀尔丁 Spencer Wilding (id:1194815)

史蒂文·斯皮尔伯格 Steven Spielberg (id:1054440)

程武 Wu Cheng (id:1406349)

克里斯·贝肯 Chris Bacon (id:1251716)

丹尼·艾夫曼 Danny Elfman (id:1019059)

佩妮·罗斯 Penny Rose (id:1296044)

罗斯·菲茨莫里斯 Rose Fitzmaurice (id:1419118)

拉加夫·阿鲁木甘 Raghav Arumugam (id:1419115)

◎简 介

全球最具影响力的经典科幻IP《黑衣人》全面升级!科幻电影之父史蒂文·斯皮尔伯格联手《速度与激情8》导演F·加里·格雷,金牌班底鼎力巨献!英国黑衣人总部王牌探员H(锤哥)与新晋探员M(泰莎·汤普森)在阻止外星团伙入侵的过程中意外铲除了隐藏在黑衣人组织中的内奸,成功拯救世界 。

影片中,各种脑洞大开的外星人和颠覆想象的高科技装备轮番登场,热血沸腾惊心动魄的动作追车场面层出不穷,完美构建出全新的黑衣人宇宙观。本片将于2019年6月14日内地同步北美上映。

  1. ##### MediaInfo ######

  2. General

  3. Unique ID : 339332191411118576889458465481653014108 (0xFF4900BAFECA4D053BB1CB40CFF8CE5C)

  4. Complete name : Men.in.Black.International.2160p.UHD.Bluray.HDR10.x265.Atmos.TrueHD.7.1-PTH.mkv

  5. Format : Matroska

  6. Format version : Version 4

  7. File size : 27.0 GiB

  8. Duration : 1 h 54 min

  9. Overall bit rate mode : Variable

  10. Overall bit rate : 33.7 Mb/s

  11. Encoded date : UTC 2022-04-04 12:06:02

  12. Writing application : mkvmerge v66.0.0 ('Josie') 64-bit

  13. Writing library : libebml v1.4.2 + libmatroska v1.6.4

  14. Cover : Yes

  15. Attachments : cover.jpg / cover.jpg

  16. Video

  17. ID : 1

  18. Format : HEVC

  19. Format/Info : High Efficiency Video Coding

  20. Format profile : Main [email protected]@High

  21. HDR format : SMPTE ST 2086, HDR10 compatible

  22. Codec ID : V_MPEGH/ISO/HEVC

  23. Duration : 1 h 54 min

  24. Bit rate : 25.5 Mb/s

  25. Width : 3 840 pixels

  26. Height : 1 916 pixels

  27. Display aspect ratio : 2.004

  28. Frame rate mode : Constant

  29. Frame rate : 23.976 (24000/1001/53354) FPS

  30. Color space : YUV

  31. Chroma subsampling : 4:2:0

  32. Bit depth : 10 bits

  33. Bits/(Pixel*Frame) : 0.144

  34. Stream size : 20.4 GiB (76%)

  35. Writing library : x265 3.1+2-g764455672+26:[Windows][GCC 8.3.0][64 bit] Yuuki 10bit+8bit+12bit

  36. Encoding settings : rc=crf / crf=18.0000 / qcomp=0.80 / qpstep=4 / stats-write=0 / stats-read=0 / vbv-maxrate=160000 / vbv-bufsize=160000 / vbv-init=0.9 / crf-max=0.0 / crf-min=0.0 / no-lossless / no-cu-lossless / aq-mode=3 / aq-strength=0.90 / cbqpoffs=-3 / crqpoffs=-3 / ipratio=1.40 / pbratio=1.30 / psy-rd=2.00 / psy-rdoq=3.00 / deblock=-1:-1 / ref=5 / limit-refs=0 / no-limit-modes / bframes=8 / b-adapt=2 / bframe-bias=0 / b-pyramid / b-intra / weightp / weightb / min-keyint=23 / max-keyint=240 / rc-lookahead=60 / gop-lookahead=0 / NTMzNTQ=uuDQuD2mJt9fsCf / scenecut=40 / radl=0 / max-cu-size=32 / min-cu-size=8 / me=3 / subme=4 / merange=25 / rdoq-level=2 / rd=4 / rdpenalty=1 / dynamic-rd=0.00 / no-rd-refine / ----- / no-cutree / no-sao / no-rect / no-amp / no-open-gop / wpp / pmode / pme / no-psnr / no-ssim / nr-intra=0 / nr-inter=0 / no-constrained-intra / no-strong-intra-smoothing / max-tu-size=32 / tu-inter-depth=2 / tu-intra-depth=2 / limit-tu=0 / qg-size=32 / qpmax=69 / qpmin=0 / ----- / cpuid=533541111039 / frame-threads=6 / numa-pools=54,- / log-level=2 / input-csp=1 / input-res=3840x1916 / interlace=0 / level-idc=0 / high-tier=1 / uhd-bd=0 / no-allow-non-conformance / no-repeat-headers / no-aud / hrd / info / hash=0 / no-temporal-layers / lookahead-slices=0 / no-splice / no-intra-refresh / no-ssim-rd / signhide / no-tskip / max-merge=3 / temporal-mvp / no-analyze-src-pics / no-sao-non-deblock / no-early-skip / no-rskip / no-fast-intra / no-tskip-fast / no-splitrd-skip / zone-count=0 / no-strict-cbr / no-rc-grain / no-const-vbv / sar=0 / overscan=0 / videoformat=5 / range=0 / colorprim=9 / transfer=16 / colormatrix=9 / chromaloc=0 / display-window=0 / master-display=G(13250,34500)B(7500,3000)R(34000,16000)WP(15635,16450)L(40000000,50)cll=9008,942 / min-luma=0 / max-luma=1023 / log2-max-poc-lsb=8 / vui-timing-info / vui-hrd-info / slices=1 / no-opt-qp-pps / no-opt-ref-list-length-pps / no-multi-pass-opt-rps / scenecut-bias=0.05 / no-opt-cu-delta-qp / no-aq-motion / hdr / hdr-opt / no-dhdr10-opt / no-idr-recovery-sei / analysis-reuse-level=5 / scale-factor=0 / refine-intra=0 / refine-inter=0 / refine-mv=0 / refine-ctu-distortion=0 / no-limit-sao / ctu-info=0 / no-lowpass-dct / refine-analysis-type=0 / copy-pic=1 / max-ausize-factor=1.0 / no-dynamic-refine / no-single-sei / no-hevc-aq / no-svt / no-field / qp-adaptation-range=1.00

  37. Default : Yes

  38. Forced : No

  39. Color range : Limited

  40. Color primaries : BT.2020

  41. Transfer characteristics : PQ

  42. Matrix coefficients : BT.2020 non-constant

  43. Mastering display color primaries : Display P3

  44. Mastering display luminance : min: 0.0050 cd/m2, max: 4000 cd/m2

  45. Maximum Content Light Level : 9008 cd/m2

  46. Maximum Frame-Average Light Level : 942 cd/m2

  47. Audio #1

  48. ID : 2

  49. Format : MLP FBA 16-ch

  50. Format/Info : Meridian Lossless Packing FBA with 16-channel presentation

  51. Commercial name : Dolby TrueHD with Dolby Atmos

  52. Codec ID : A_TRUEHD

  53. Duration : 1 h 54 min

  54. Bit rate mode : Variable

  55. Bit rate : 3 140 kb/s

  56. Maximum bit rate : 3 762 kb/s

  57. Channel(s) : 8 channels

  58. Channel layout : L R C LFE Ls Rs Lb Rb

  59. Sampling rate : 48.0 kHz

  60. Frame rate : 1 200.000 FPS (40 SPF)

  61. Compression mode : Lossless

  62. Delay relative to video : 8 ms

  63. Stream size : 2.52 GiB (9%)

  64. Language : English

  65. Default : Yes

  66. Forced : No

  67. Number of dynamic objects : 11

  68. Bed channel count : 1 channel

  69. Bed channel configuration : LFE

  70. Audio #2

  71. ID : 3

  72. Format : DTS XLL

  73. Format/Info : Digital Theater Systems

  74. Commercial name : DTS-HD Master Audio

  75. Codec ID : A_DTS

  76. Duration : 1 h 54 min

  77. Bit rate mode : Variable

  78. Bit rate : 4 945 kb/s

  79. Channel(s) : 8 channels

  80. Channel layout : C L R LFE Lb Rb Lss Rss

  81. Sampling rate : 48.0 kHz

  82. Frame rate : 93.750 FPS (512 SPF)

  83. Bit depth : 24 bits

  84. Compression mode : Lossless

  85. Stream size : 3.97 GiB (15%)

  86. Language : Chinese

  87. Default : No

  88. Forced : No

  89. Text

  90. ID : 4

  91. Format : PGS

  92. Muxing mode : zlib

  93. Codec ID : S_HDMV/PGS

  94. Codec ID/Info : Picture based subtitle format used on BDs/HD-DVDs

  95. Duration : 1 h 46 min

  96. Bit rate : 134 kb/s

  97. Count of elements : 6663

  98. Stream size : 102 MiB (0%)

  99. Language : Chinese

  100. Default : Yes

  101. Forced : No



文件下载


除非特别注明,本文『黑衣人:全球追缉[国英多音轨/简体字幕].Men.in.Black.International.2160p.UHD.Bluray.HDR10.x265.Atmos.TrueHD.7.1-PAGE 27』来源于互联网机器人自动抓取,非本站原创。 浮游电影网不对本文拥有版权,如有侵犯,请联系邮箱:fuyouu#yandex.com[#换成@]投诉。我们会在15个工作日内删除。 但烦请转载时请标明出处:“本文转载于『浮游电影网』,原文地址:https://www.fuyouu.com/21192.html

评论吧骚年!

发表你的见解   

昵称*

E-mail*(建议输入,以便收到博主回复的提示邮件)

验证码*

您可以使用eMule或eMule Mod(Windows)、aMule(Win、Linux、Mac)等软件下载eD2k链接。。
eMule收藏集(.emulecollection)文件是您选中的所有链接的列表文件。eMule可以直接下载它们。
按住SHIFT键选择可以选中多个选择框。
可用文件名和大小选择器来选择文件。
文件名选择器帮您根据文件名称或后缀来选择文件。不分大小写。
符号使用:
和:空格( )、+
不包含:-
或:|
转义:一对英文引号("");
匹配开头:^
匹配结尾:$
例如:
选中所有名称中包含有“eMule”或“0.49c”字眼,但不包含有“exe”字眼的:emule|0.49c -exe
选中所有名称的开头是“eMule”,结尾是“0.49c”的:^emule 0.49c$
选中所有名称中带有“eMule 0.49c”的(必须是“eMule 0.49c”,中间没有别的字符,不能是“eMule fake 0.49c”),需要转义:"emule 0.49c"
大小选择器帮您根据文件大小选择文件。