当前位置: 首页 >> 欧美电影 >> 重金属天团[中文字幕].Metal.Lords.2022.1080p.NF.WEBRip.DDP5.1.Atmos.x264-TEPES 5.05GB >> 正文

重金属天团[中文字幕].Metal.Lords.2022.1080p.NF.WEBRip.DDP5.1.Atmos.x264-TEPES 5.05GB

2022年04月09日 20:41:59     电影发布:来源于网络     电影分类:欧美电影     评论(0)    

重金属天团[中文字幕].Metal.Lords.2022.1080p.NF.WEBRip.DDP5.1.Atmos.x264 TEPES 5.05GB 音乐 喜剧 欧美电影  第1张

◎译 名 重金属天团 / 金属贵族 / 金属霸主 / 金属上帝

◎片 名 Metal Lords

◎年 代 2022

◎产 地 美国

◎类 别 喜剧 / 音乐

◎语 言 英语

◎上映日期 2022-04-08(美国网络)

◎IMDb链接 https://www.imdb.com/title/tt12141112/

◎豆瓣链接 https://movie.douban.com/subject/35200310/

◎片 长 98分钟

◎导 演 彼得·苏列特 Peter Sollett (id:1298023)

◎编 剧 D·B·威斯 D.B. Weiss (id:1320839)

◎演 员 杰登·马泰尔 Jaeden Martell (id:1341335)

艾西斯·海恩斯沃斯 Isis Hainsworth (id:1414690)

阿德里安·格林斯密斯 Adrian Greensmith (id:1469071)

乔·曼根尼罗 Joe Manganiello (id:1013768)

布伦特·吉尔曼 Brett Gelman (id:1338062)

苏芙·布莱德肖 Sufe Bradshaw (id:1353944)

米歇尔·毛 Michelle Mao (id:1394733)

约瑟夫·贝尔托特 Joseph Bertót (id:1202131)

凯蒂·麦克凯布 Katie McCabe (id:1428179)

泰迪·范·依 Teddy Van Ee (id:1363355)

凯尔·斯托尔茨 Kyle Stoltz (id:1456474)

◎简 介

两名少年在高中组了一个金属乐队,然而学校里只有他们俩喜欢金属乐。他们找不到贝斯手,只得找来一名拉大提琴的女生做队友。三人必须齐心协力,才能在“乐队大战”中杀出重围。

  1. Video

  2. ID : 1

  3. Format : AVC

  4. Format/Info : Advanced Video Codec

  5. Format profile : [email protected]

  6. Format settings : CABAC / 4 Ref Frames

  7. Format settings, CABAC : Yes

  8. Format settings, Reference frames : 4 frames

  9. Codec ID : V_MPEG4/ISO/AVC

  10. Duration : 1 h 38 min

  11. Bit rate mode : Variable

  12. Bit rate : 6 558 kb/s

  13. Maximum bit rate : 20.0 Mb/s

  14. Width : 1 920 pixels

  15. Height : 1 080 pixels

  16. Display aspect ratio : 16:9

  17. Frame rate mode : Constant

  18. Frame rate : 24.000 FPS

  19. Color space : YUV

  20. Chroma subsampling : 4:2:0

  21. Bit depth : 8 bits

  22. Scan type : Progressive

  23. Bits/(Pixel*Frame) : 0.132

  24. Stream size : 4.51 GiB (89%)

  25. Writing library : x264 core 148 r2727 7d026e8

  26. Encoding settings : cabac=1 / ref=4 / deblock=1:0:0 / analyse=0x3:0x111 / me=umh / subme=10 / psy=1 / psy_rd=1.00:0.00 / mixed_ref=1 / me_range=120 / chroma_me=1 / trellis=2 / 8x8dct=1 / cqm=0 / deadzone=21,11 / fast_pskip=1 / chroma_qp_offset=-2 / threads=8 / lookahead_threads=2 / sliced_threads=0 / nr=0 / decimate=1 / interlaced=0 / NTMzNTQ= / bluray_compat=0 / stitchable=1 / constrained_intra=0 / bframes=16 / b_pyramid=2 / b_adapt=2 / b_bias=0 / direct=3 / weightb=1 / open_gop=0 / weightp=2 / keyint=240 / keyint_min=121 / scenecut=0 / intra_refresh=0 / rc_lookahead=240 / rc=crf / mbtree=1 / crf=16.0 / qcomp=0.50 / qpmin=6 / qpmax=51 / qpstep=4 / vbv_maxrate=20000 / vbv_bufsize=25000 / crf_max=0.0 / nal_hrd=vbr / filler=0 / NTMzNTQ=LmsMAP37EqsCpk / ip_ratio=1.40 / aq=1:0.80

  27. Default : Yes

  28. Forced : No


  29. Audio

  30. ID : 2

  31. Format : E-AC-3 JOC

  32. Format/Info : Enhanced AC-3 with Joint Object Coding

  33. Commercial name : Dolby Digital Plus with Dolby Atmos

  34. Codec ID : A_EAC3

  35. Duration : 1 h 38 min

  36. Bit rate mode : Constant

  37. Bit rate : 768 kb/s

  38. Channel(s) : 6 channels

  39. Channel layout : L R C LFE Ls Rs

  40. Sampling rate : 48.0 kHz

  41. Frame rate : 31.250 FPS (1536 SPF)

  42. Compression mode : Lossy

  43. Stream size : 542 MiB (10%)

  44. Language : English

  45. Service kind : Complete Main

  46. Default : Yes

  47. Forced : No

  48. Complexity index : 16

  49. Number of dynamic objects : 15

  50. Bed channel count : 1 channel

  51. Bed channel configuration : LFE


  52. Text #1

  53. ID : 3

  54. Format : UTF-8

  55. Codec ID : S_TEXT/UTF8

  56. Codec ID/Info : UTF-8 Plain Text

  57. Duration : 1 h 29 min

  58. Bit rate : 52 b/s

  59. Count of elements : 1124

  60. Stream size : 34.5 KiB (0%)

  61. Language : English

  62. Default : No

  63. Forced : No


  64. Text #2

  65. ID : 4

  66. Format : UTF-8

  67. Codec ID : S_TEXT/UTF8

  68. Codec ID/Info : UTF-8 Plain Text

  69. Duration : 1 h 36 min

  70. Bit rate : 70 b/s

  71. Count of elements : 1572

  72. Stream size : 49.8 KiB (0%)

  73. Title : SDH

  74. Language : English

  75. Default : No

  76. Forced : No


  77. Text #3

  78. ID : 5

  79. Format : UTF-8

  80. Codec ID : S_TEXT/UTF8

  81. Codec ID/Info : UTF-8 Plain Text

  82. Duration : 1 h 36 min

  83. Bit rate : 80 b/s

  84. Count of elements : 1128

  85. Stream size : 56.6 KiB (0%)

  86. Language : Arabic

  87. Default : No

  88. Forced : No


  89. Text #4

  90. ID : 6

  91. Format : UTF-8

  92. Codec ID : S_TEXT/UTF8

  93. Codec ID/Info : UTF-8 Plain Text

  94. Duration : 1 h 29 min

  95. Bit rate : 50 b/s

  96. Count of elements : 792

  97. Stream size : 33.5 KiB (0%)

  98. Language : Czech

  99. Default : No

  100. Forced : No


  101. Text #5

  102. ID : 7

  103. Format : UTF-8

  104. Codec ID : S_TEXT/UTF8

  105. Codec ID/Info : UTF-8 Plain Text

  106. Duration : 1 h 36 min

  107. Bit rate : 42 b/s

  108. Count of elements : 1002

  109. Stream size : 30.2 KiB (0%)

  110. Language : Danish

  111. Default : No

  112. Forced : No


  113. Text #6

  114. ID : 8

  115. Format : UTF-8

  116. Codec ID : S_TEXT/UTF8

  117. Codec ID/Info : UTF-8 Plain Text

  118. Duration : 1 h 36 min

  119. Bit rate : 45 b/s

  120. Count of elements : 1069

  121. Stream size : 32.5 KiB (0%)

  122. Language : German

  123. Default : No

  124. Forced : No


  125. Text #7

  126. ID : 9

  127. Format : UTF-8

  128. Codec ID : S_TEXT/UTF8

  129. Codec ID/Info : UTF-8 Plain Text

  130. Duration : 1 h 36 min

  131. Bit rate : 73 b/s

  132. Count of elements : 1147

  133. Stream size : 52.2 KiB (0%)

  134. Language : Greek

  135. Default : No

  136. Forced : No


  137. Text #8

  138. ID : 10

  139. Format : UTF-8

  140. Codec ID : S_TEXT/UTF8

  141. Codec ID/Info : UTF-8 Plain Text

  142. Duration : 1 h 36 min

  143. Bit rate : 41 b/s

  144. Count of elements : 1098

  145. Stream size : 29.7 KiB (0%)

  146. Language : Spanish

  147. Default : No

  148. Forced : No


  149. Text #9

  150. ID : 11

  151. Format : UTF-8

  152. Codec ID : S_TEXT/UTF8

  153. Codec ID/Info : UTF-8 Plain Text

  154. Duration : 1 h 36 min

  155. Bit rate : 56 b/s

  156. Count of elements : 1277

  157. Stream size : 40.1 KiB (0%)

  158. Title : SDH

  159. Language : Spanish

  160. Default : No

  161. Forced : No


  162. Text #10

  163. ID : 12

  164. Format : UTF-8

  165. Codec ID : S_TEXT/UTF8

  166. Codec ID/Info : UTF-8 Plain Text

  167. Duration : 1 h 36 min

  168. Bit rate : 42 b/s

  169. Count of elements : 1103

  170. Stream size : 30.4 KiB (0%)

  171. Title : European

  172. Language : Spanish

  173. Default : No

  174. Forced : No


  175. Text #11

  176. ID : 13

  177. Format : UTF-8

  178. Codec ID : S_TEXT/UTF8

  179. Codec ID/Info : UTF-8 Plain Text

  180. Duration : 1 h 36 min

  181. Bit rate : 41 b/s

  182. Count of elements : 988

  183. Stream size : 29.5 KiB (0%)

  184. Language : Finnish

  185. Default : No

  186. Forced : No


  187. Text #12

  188. ID : 14

  189. Format : UTF-8

  190. Codec ID : S_TEXT/UTF8

  191. Codec ID/Info : UTF-8 Plain Text

  192. Duration : 1 h 36 min

  193. Bit rate : 43 b/s

  194. Count of elements : 1011

  195. Stream size : 30.8 KiB (0%)

  196. Language : French

  197. Default : No

  198. Forced : No


  199. Text #13

  200. ID : 15

  201. Format : UTF-8

  202. Codec ID : S_TEXT/UTF8

  203. Codec ID/Info : UTF-8 Plain Text

  204. Duration : 1 h 36 min

  205. Bit rate : 71 b/s

  206. Count of elements : 1128

  207. Stream size : 50.3 KiB (0%)

  208. Language : Hebrew

  209. Default : No

  210. Forced : No


  211. Text #14

  212. ID : 16

  213. Format : UTF-8

  214. Codec ID : S_TEXT/UTF8

  215. Codec ID/Info : UTF-8 Plain Text

  216. Duration : 1 h 36 min

  217. Bit rate : 41 b/s

  218. Count of elements : 1093

  219. Stream size : 29.1 KiB (0%)

  220. Language : Croatian

  221. Default : No

  222. Forced : No


  223. Text #15

  224. ID : 17

  225. Format : UTF-8

  226. Codec ID : S_TEXT/UTF8

  227. Codec ID/Info : UTF-8 Plain Text

  228. Duration : 1 h 36 min

  229. Bit rate : 46 b/s

  230. Count of elements : 1074

  231. Stream size : 32.6 KiB (0%)

  232. Language : Hungarian

  233. Default : No

  234. Forced : No


  235. Text #16

  236. ID : 18

  237. Format : UTF-8

  238. Codec ID : S_TEXT/UTF8

  239. Codec ID/Info : UTF-8 Plain Text

  240. Duration : 1 h 36 min

  241. Bit rate : 47 b/s

  242. Count of elements : 1109

  243. Stream size : 33.3 KiB (0%)

  244. Language : Indonesian

  245. Default : No

  246. Forced : No


  247. Text #17

  248. ID : 19

  249. Format : UTF-8

  250. Codec ID : S_TEXT/UTF8

  251. Codec ID/Info : UTF-8 Plain Text

  252. Duration : 1 h 36 min

  253. Bit rate : 42 b/s

  254. Count of elements : 1091

  255. Stream size : 30.1 KiB (0%)

  256. Language : Italian

  257. Default : No

  258. Forced : No


  259. Text #18

  260. ID : 20

  261. Format : UTF-8

  262. Codec ID : S_TEXT/UTF8

  263. Codec ID/Info : UTF-8 Plain Text

  264. Duration : 1 h 36 min

  265. Bit rate : 41 b/s

  266. Count of elements : 1160

  267. Stream size : 29.1 KiB (0%)

  268. Language : Japanese

  269. Default : No

  270. Forced : No


  271. Text #19

  272. ID : 21

  273. Format : UTF-8

  274. Codec ID : S_TEXT/UTF8

  275. Codec ID/Info : UTF-8 Plain Text

  276. Duration : 1 h 36 min

  277. Bit rate : 56 b/s

  278. Count of elements : 1161

  279. Stream size : 40.0 KiB (0%)

  280. Language : Korean

  281. Default : No

  282. Forced : No


  283. Text #20

  284. ID : 22

  285. Format : UTF-8

  286. Codec ID : S_TEXT/UTF8

  287. Codec ID/Info : UTF-8 Plain Text

  288. Duration : 1 h 36 min

  289. Bit rate : 46 b/s

  290. Count of elements : 1118

  291. Stream size : 33.2 KiB (0%)

  292. Language : Malay

  293. Default : No

  294. Forced : No


  295. Text #21

  296. ID : 23

  297. Format : UTF-8

  298. Codec ID : S_TEXT/UTF8

  299. Codec ID/Info : UTF-8 Plain Text

  300. Duration : 1 h 36 min

  301. Bit rate : 40 b/s

  302. Count of elements : 967

  303. Stream size : 28.8 KiB (0%)

  304. Language : Norwegian Bokmal

  305. Default : No

  306. Forced : No


  307. Text #22

  308. ID : 24

  309. Format : UTF-8

  310. Codec ID : S_TEXT/UTF8

  311. Codec ID/Info : UTF-8 Plain Text

  312. Duration : 1 h 36 min

  313. Bit rate : 41 b/s

  314. Count of elements : 974

  315. Stream size : 29.5 KiB (0%)

  316. Language : Dutch

  317. Default : No

  318. Forced : No


  319. Text #23

  320. ID : 25

  321. Format : UTF-8

  322. Codec ID : S_TEXT/UTF8

  323. Codec ID/Info : UTF-8 Plain Text

  324. Duration : 1 h 36 min

  325. Bit rate : 41 b/s

  326. Count of elements : 956

  327. Stream size : 29.2 KiB (0%)

  328. Language : Polish

  329. Default : No

  330. Forced : No


  331. Text #24

  332. ID : 26

  333. Format : UTF-8

  334. Codec ID : S_TEXT/UTF8

  335. Codec ID/Info : UTF-8 Plain Text

  336. Duration : 1 h 36 min

  337. Bit rate : 45 b/s

  338. Count of elements : 1107

  339. Stream size : 32.0 KiB (0%)

  340. Language : Portuguese

  341. Default : No

  342. Forced : No


  343. Text #25

  344. ID : 27

  345. Format : UTF-8

  346. Codec ID : S_TEXT/UTF8

  347. Codec ID/Info : UTF-8 Plain Text

  348. Duration : 1 h 36 min

  349. Bit rate : 46 b/s

  350. Count of elements : 1118

  351. Stream size : 32.8 KiB (0%)

  352. Title : Brazilian

  353. Language : Portuguese

  354. Default : No

  355. Forced : No


  356. Text #26

  357. ID : 28

  358. Format : UTF-8

  359. Codec ID : S_TEXT/UTF8

  360. Codec ID/Info : UTF-8 Plain Text

  361. Duration : 1 h 35 min

  362. Bit rate : 60 b/s

  363. Count of elements : 1348

  364. Stream size : 42.3 KiB (0%)

  365. Title : Brazilian (SDH)

  366. Language : Portuguese

  367. Default : No

  368. Forced : No


  369. Text #27

  370. ID : 29

  371. Format : UTF-8

  372. Codec ID : S_TEXT/UTF8

  373. Codec ID/Info : UTF-8 Plain Text

  374. Duration : 1 h 36 min

  375. Bit rate : 50 b/s

  376. Count of elements : 1104

  377. Stream size : 35.4 KiB (0%)

  378. Language : Romanian

  379. Default : No

  380. Forced : No


  381. Text #28

  382. ID : 30

  383. Format : UTF-8

  384. Codec ID : S_TEXT/UTF8

  385. Codec ID/Info : UTF-8 Plain Text

  386. Duration : 1 h 36 min

  387. Bit rate : 73 b/s

  388. Count of elements : 1105

  389. Stream size : 51.9 KiB (0%)

  390. Language : Russian

  391. Default : No

  392. Forced : No


  393. Text #29

  394. ID : 31

  395. Format : UTF-8

  396. Codec ID : S_TEXT/UTF8

  397. Codec ID/Info : UTF-8 Plain Text

  398. Duration : 1 h 36 min

  399. Bit rate : 46 b/s

  400. Count of elements : 886

  401. Stream size : 32.9 KiB (0%)

  402. Language : Swedish

  403. Default : No

  404. Forced : No


  405. Text #30

  406. ID : 32

  407. Format : UTF-8

  408. Codec ID : S_TEXT/UTF8

  409. Codec ID/Info : UTF-8 Plain Text

  410. Duration : 1 h 36 min

  411. Bit rate : 121 b/s

  412. Count of elements : 1129

  413. Stream size : 86.1 KiB (0%)

  414. Language : Thai

  415. Default : No

  416. Forced : No


  417. Text #31

  418. ID : 33

  419. Format : UTF-8

  420. Codec ID : S_TEXT/UTF8

  421. Codec ID/Info : UTF-8 Plain Text

  422. Duration : 1 h 36 min

  423. Bit rate : 46 b/s

  424. Count of elements : 1094

  425. Stream size : 32.8 KiB (0%)

  426. Language : Turkish

  427. Default : No

  428. Forced : No


  429. Text #32

  430. ID : 34

  431. Format : UTF-8

  432. Codec ID : S_TEXT/UTF8

  433. Codec ID/Info : UTF-8 Plain Text

  434. Duration : 1 h 36 min

  435. Bit rate : 72 b/s

  436. Count of elements : 1122

  437. Stream size : 51.5 KiB (0%)

  438. Language : Ukrainian

  439. Default : No

  440. Forced : No


  441. Text #33

  442. ID : 35

  443. Format : UTF-8

  444. Codec ID : S_TEXT/UTF8

  445. Codec ID/Info : UTF-8 Plain Text

  446. Duration : 1 h 36 min

  447. Bit rate : 65 b/s

  448. Count of elements : 1000

  449. Stream size : 46.7 KiB (0%)

  450. Language : Vietnamese

  451. Default : No

  452. Forced : No


  453. Text #34

  454. ID : 36

  455. Format : UTF-8

  456. Codec ID : S_TEXT/UTF8

  457. Codec ID/Info : UTF-8 Plain Text

  458. Duration : 1 h 36 min

  459. Bit rate : 53 b/s

  460. Count of elements : 1121

  461. Stream size : 37.6 KiB (0%)

  462. Title : Simplified

  463. Language : Chinese

  464. Default : No

  465. Forced : No


  466. Text #35

  467. ID : 37

  468. Format : UTF-8

  469. Codec ID : S_TEXT/UTF8

  470. Codec ID/Info : UTF-8 Plain Text

  471. Duration : 1 h 36 min

  472. Bit rate : 46 b/s

  473. Count of elements : 1158

  474. Stream size : 32.8 KiB (0%)

  475. Title : Traditional

  476. Language : Chinese

  477. Default : No

  478. Forced : No


  479. Menu

  480. 01:31:47.000 : en:Credits

复制代码

重金属天团[中文字幕].Metal.Lords.2022.1080p.NF.WEBRip.DDP5.1.Atmos.x264 TEPES 5.05GB 音乐 喜剧 欧美电影  第2张 重金属天团[中文字幕].Metal.Lords.2022.1080p.NF.WEBRip.DDP5.1.Atmos.x264 TEPES 5.05GB 音乐 喜剧 欧美电影  第3张 重金属天团[中文字幕].Metal.Lords.2022.1080p.NF.WEBRip.DDP5.1.Atmos.x264 TEPES 5.05GB 音乐 喜剧 欧美电影  第4张



文件下载


除非特别注明,本文『重金属天团[中文字幕].Metal.Lords.2022.1080p.NF.WEBRip.DDP5.1.Atmos.x264-TEPES 5.05GB』来源于互联网机器人自动抓取,非本站原创。 浮游电影网不对本文拥有版权,如有侵犯,请联系邮箱:fuyouu#yandex.com[#换成@]投诉。我们会在15个工作日内删除。 但烦请转载时请标明出处:“本文转载于『浮游电影网』,原文地址:https://www.fuyouu.com/21187.html

评论吧骚年!

发表你的见解   

昵称*

E-mail*(建议输入,以便收到博主回复的提示邮件)

验证码*

您可以使用eMule或eMule Mod(Windows)、aMule(Win、Linux、Mac)等软件下载eD2k链接。。
eMule收藏集(.emulecollection)文件是您选中的所有链接的列表文件。eMule可以直接下载它们。
按住SHIFT键选择可以选中多个选择框。
可用文件名和大小选择器来选择文件。
文件名选择器帮您根据文件名称或后缀来选择文件。不分大小写。
符号使用:
和:空格( )、+
不包含:-
或:|
转义:一对英文引号("");
匹配开头:^
匹配结尾:$
例如:
选中所有名称中包含有“eMule”或“0.49c”字眼,但不包含有“exe”字眼的:emule|0.49c -exe
选中所有名称的开头是“eMule”,结尾是“0.49c”的:^emule 0.49c$
选中所有名称中带有“eMule 0.49c”的(必须是“eMule 0.49c”,中间没有别的字符,不能是“eMule fake 0.49c”),需要转义:"emule 0.49c"
大小选择器帮您根据文件大小选择文件。