当前位置: 首页 >> 欧美电影 >> 黑衣人[共3部合集][简繁英字幕].Men.in.Black.Trilogy.1997-2013.BluRay.1080p.DTS-HD.MA5.1.x265.10bit-ALT 23.50GB >> 正文

黑衣人[共3部合集][简繁英字幕].Men.in.Black.Trilogy.1997-2013.BluRay.1080p.DTS-HD.MA5.1.x265.10bit-ALT 23.50GB

2022年04月09日 20:39:29     电影发布:来源于网络     电影分类:欧美电影     评论(0)    

黑衣人[共3部合集][简繁英字幕].Men.in.Black.Trilogy.1997 2013.BluRay.1080p.DTS HD.MA5.1.x265.10bit ALT 23.50GB 科幻 动作 喜剧 欧美电影  第1张

◎译 名 黑衣人 / 黑超特警组(港) / MIB星际战警(台) / MIB

◎片 名 Men in Black

◎年 代 1997

◎产 地 美国

◎类 别 喜剧 / 动作 / 科幻

◎语 言 英语 / 西班牙语

◎上映日期 1997-07-02(美国)

◎IMDb链接 https://www.imdb.com/title/tt0119654/

◎豆瓣评分 8.2/10 (305773人评价)

◎豆瓣链接 https://movie.douban.com/subject/1301445/

◎片 长 98分钟

◎导 演 巴里·索南菲尔德 Barry Sonnenfeld (id:1002772)

◎编 剧 艾德·索罗门 Ed Solomon (id:1050173)

劳威尔·坎宁安 Lowell Cunningham (id:1018693)

◎演 员 威尔·史密斯 Will Smith (id:1027138)

汤米·李·琼斯 Tommy Lee Jones (id:1047994)

琳达·费奥伦蒂诺 Linda Fiorentino (id:1031885)

文森特·多诺费奥 Vincent D'Onofrio (id:1010546)

雷普·汤恩 Rip Torn (id:1006985)

托尼·夏尔赫布 Tony Shalhoub (id:1027825)

卡雷尔·斯特鲁基 Carel Struycken (id:1152303)

弗瑞德里克·林恩 Fredric Lehne (id:1004785)

查尔斯·C·史蒂文森 Charles C. Stevenson Jr. (id:1388512)

理查德-汉密尔顿 Richard Hamilton (id:1095980)

迈克·努斯鲍姆 Mike Nussbaum (id:1130923)

丹尼·德维托 Danny DeVito (id:1040516)

史蒂文·斯皮尔伯格 Steven Spielberg (id:1054440)

强·格瑞斯 Jon Gries (id:1019058)

希博汗·法隆 Siobhan Fallon (id:1080248)

大卫·克罗斯 David Cross (id:1071279)

乔治·卢卡斯 George Lucas (id:1054507)

Mushu Mushu (id:1440985)

史蒂文·斯皮尔伯格 Steven Spielberg (id:1054440)

丹尼·艾夫曼 Danny Elfman (id:1019059)

◎简 介

地球并不只是人类的天下,其实有1500名外星人生活中我们当中,而星际移民局则处理和外星人相关的事情。

纽约普通警察爱德华兹(威尔·史密斯 饰)因缘际会之下加入了这一组织,成为MIB的一员,代号J,从此没有名字、没有身份,成为特警K(汤姆·李·琼斯 饰)的搭档。

J应对的 第一起事件就是虫族的入侵。亚基伦王子罗斯伯在地球被虫族杀害,而他随身携带的“银河系”——宇宙次原子能源的最好来源也失踪了,若虫族找到,将给亚基伦人带来毁灭性的打击;亚基伦人发出最后通牒,如果地球人不能在一个小时之内交出“银河系”,他们就摧毁地球。

为了地球的安全,K和J不得不挺身而出。

◎获奖情况 (共4项)

第70届奥斯卡金像奖 (1998)

最佳艺术指导(提名)

最佳化妆

音乐/喜剧片最佳原创配乐(提名)

└──丹尼·艾夫曼 (id:1019059)

第55届金球奖 (1998)

电影类 最佳音乐/喜剧片(提名)

  1. 合集文件列表:

  2. 1.Men.in.Black.3.2012.BluRay.1080p.DTS-HD.MA5.1.x265.10bit-ALT.mkv 8.56GB

  3. 2.Men.in.Black.1997.BluRay.1080p.TrueHD.5.1.x265.10bit-ALT.mkv 7.96GB

  4. 3.Men.in.Black.II.2002.BluRay.1080p.DTS-HD.MA5.1.x265.10bit-ALT.mkv 6.99GB


复制代码

  1. ##### MediaInfo ######

  2. General

  3. Unique ID : 39623799341603989622333841580830286918 (0x1DCF4423787A3E293F9E24D2ECBCE446)

  4. Complete name : Men.in.Black.3.2012.BluRay.1080p.DTS-HD.MA5.1.x265.10bit-BeiTai.mkv

  5. Format : Matroska

  6. Format version : Version 4

  7. File size : 8.56 GiB

  8. Duration : 1 h 45 min

  9. Overall bit rate mode : Variable

  10. Overall bit rate : 11.6 Mb/s

  11. Encoded date : UTC 2022-02-09 10:31:31

  12. Writing application : mkvmerge v49.0.0 ('Sick Of Losing Soulmates') 64-bit

  13. Writing library : libebml v1.4.0 + libmatroska v1.6.1

  14. Video

  15. ID : 1

  16. Format : HEVC

  17. Format/Info : High Efficiency Video Coding

  18. Format profile : Main [email protected]@High

  19. Codec ID : V_MPEGH/ISO/HEVC

  20. Duration : 1 h 45 min

  21. Bit rate : 8 943 kb/s

  22. Width : 1 920 pixels

  23. Height : 1 040 pixels

  24. Display aspect ratio : 1.85:1

  25. Frame rate mode : Constant

  26. Frame rate : 23.976 (24000/1001/53354) FPS

  27. Color space : YUV

  28. Chroma subsampling : 4:2:0

  29. Bit depth : 10 bits

  30. Bits/(Pixel*Frame) : 0.187

  31. Stream size : 6.61 GiB (77%)

  32. Title : HEVC, [email protected]@High, 24/1.001 fps @ 8943 kbps

  33. Writing library : x265 3.4+14-gd419c7152:[Windows][GCC 10.2.0][64 bit] 10bit

  34. Encoding settings : cpuid=533541111039 / frame-threads=4 / numa-pools=16 / wpp / pmode / pme / no-psnr / no-ssim / log-level=2 / input-csp=1 / input-res=1920x1040 / interlace=0 / total-frames=152257 / level-idc=51 / high-tier=1 / uhd-bd=0 / ref=5 / no-allow-non-conformance / no-repeat-headers / annexb / no-aud / no-hrd / info / hash=0 / no-temporal-layers / open-gop / min-keyint=24 / keyint=240 / gop-lookahead=0 / bframes=6 / b-adapt=2 / b-pyramid / bframe-bias=0 / rc-lookahead=40 / lookahead-slices=0 / NTMzNTQ=uuDQuD2mJt9fsCf / scenecut=40 / hist-scenecut=0 / radl=0 / no-splice / no-intra-refresh / ctu=32 / min-cu-size=8 / no-rect / no-amp / max-tu-size=32 / tu-inter-depth=3 / tu-intra-depth=3 / limit-tu=4 / rdoq-level=2 / dynamic-rd=0.00 / no-ssim-rd / signhide / no-tskip / nr-intra=0 / nr-inter=0 / no-constrained-intra / no-strong-intra-smoothing / max-merge=4 / limit-refs=1 / limit-modes / me=3 / subme=4 / merange=25 / temporal-mvp / no-frame-dup / no-hme / weightp / weightb / no-analyze-src-pics / deblock=-3:-3 / no-sao / no-sao-non-deblock / rd=6 / selective-sao=0 / no-early-skip / rskip / no-fast-intra / no-tskip-fast / no-cu-lossless / b-intra / no-splitrd-skip / rdpenalty=0 / psy-rd=2.00 / psy-rdoq=1.00 / no-rd-refine / no-lossless / cbqpoffs=0 / crqpoffs=0 / rc=crf / crf=18.5 / qcomp=0.65 / qpstep=4 / stats-write=0 / stats-read=0 / vbv-maxrate=80000 / vbv-bufsize=80000 / vbv-init=0.9 / crf-max=0.0 / crf-min=0.0 / ipratio=1.40 / pbratio=1.30 / aq-mode=2 / aq-strength=0.85 / cutree / zone-count=0 / no-strict-cbr / qg-size=32 / no-rc-grain / qpmax=69 / qpmin=0 / no-const-vbv / sar=1 / overscan=0 / videoformat=5 / range=0 / colorprim=1 / transfer=1 / colormatrix=1 / chromaloc=0 / display-window=0 / cll=0,0 / min-luma=0 / max-luma=1023 / log2-max-poc-lsb=8 / vui-timing-info / vui-hrd-info / slices=1 / no-opt-qp-pps / no-opt-ref-list-length-pps / no-multi-pass-opt-rps / scenecut-bias=0.05 / hist-threshold=0.03 / no-opt-cu-delta-qp / no-aq-motion / no-hdr10 / no-hdr10-opt / no-dhdr10-opt / no-idr-recovery-sei / analysis-reuse-level=0 / analysis-save-reuse-level=0 / analysis-load-reuse-level=0 / scale-factor=0 / refine-intra=0 / refine-inter=0 / refine-mv=1 / refine-ctu-distortion=0 / no-limit-sao / ctu-info=0 / no-lowpass-dct / refine-analysis-type=0 / copy-pic=1 / max-ausize-factor=1.0 / no-dynamic-refine / no-single-sei / no-hevc-aq / no-svt / no-field / qp-adaptation-range=1.00 / no-scenecut-aware-qpconformance-window-offsets / right=0 / bottom=0 / NTMzNTQ= / decoder-max-rate=0

  35. Language : English

  36. Default : Yes

  37. Forced : No

  38. Color range : Limited

  39. Color primaries : BT.709

  40. Transfer characteristics : BT.709

  41. Matrix coefficients : BT.709

  42. Audio

  43. ID : 2

  44. Format : DTS XLL

  45. Format/Info : Digital Theater Systems

  46. Commercial name : DTS-HD Master Audio

  47. Codec ID : A_DTS

  48. Duration : 1 h 45 min

  49. Bit rate mode : Variable

  50. Bit rate : 2 403 kb/s

  51. Channel(s) : 6 channels

  52. Channel layout : C L R Ls Rs LFE

  53. Sampling rate : 48.0 kHz

  54. Frame rate : 93.750 FPS (512 SPF)

  55. Bit depth : 16 bits

  56. Compression mode : Lossless

  57. Stream size : 1.78 GiB (21%)

  58. Title : English DTS-HD Master Audio 5.1 @ 2403 kbps

  59. Language : English

  60. Default : Yes

  61. Forced : No

  62. Text #1

  63. ID : 3

  64. Format : PGS

  65. Codec ID : S_HDMV/PGS

  66. Codec ID/Info : Picture based subtitle format used on BDs/HD-DVDs

  67. Duration : 1 h 37 min

  68. Bit rate : 37.3 kb/s

  69. Count of elements : 2896

  70. Stream size : 25.9 MiB (0%)

  71. Title : Eng/SUP

  72. Language : English

  73. Default : No

  74. Forced : No

  75. Text #2

  76. ID : 4

  77. Format : PGS

  78. Codec ID : S_HDMV/PGS

  79. Codec ID/Info : Picture based subtitle format used on BDs/HD-DVDs

  80. Duration : 1 h 37 min

  81. Bit rate : 36.0 kb/s

  82. Count of elements : 2708

  83. Stream size : 25.1 MiB (0%)

  84. Title : Chs/SUP 简体

  85. Language : Chinese

  86. Default : Yes

  87. Forced : No

  88. Text #3

  89. ID : 5

  90. Format : PGS

  91. Codec ID : S_HDMV/PGS

  92. Codec ID/Info : Picture based subtitle format used on BDs/HD-DVDs

  93. Duration : 1 h 37 min

  94. Bit rate : 36.7 kb/s

  95. Count of elements : 2708

  96. Stream size : 25.6 MiB (0%)

  97. Title : Cht/SUP 繁体

  98. Language : Chinese

  99. Default : No

  100. Forced : No

  101. Text #4

  102. ID : 6

  103. Format : PGS

  104. Codec ID : S_HDMV/PGS

  105. Codec ID/Info : Picture based subtitle format used on BDs/HD-DVDs

  106. Duration : 1 h 37 min

  107. Bit rate : 66.5 kb/s

  108. Count of elements : 2934

  109. Stream size : 46.3 MiB (1%)

  110. Title : Chs/SUP 简英双语

  111. Language : Chinese

  112. Default : No

  113. Forced : No

  114. Text #5

  115. ID : 7

  116. Format : PGS

  117. Codec ID : S_HDMV/PGS

  118. Codec ID/Info : Picture based subtitle format used on BDs/HD-DVDs

  119. Duration : 1 h 37 min

  120. Bit rate : 67.4 kb/s

  121. Count of elements : 2934

  122. Stream size : 47.0 MiB (1%)

  123. Title : Cht/SUP 繁英双语

  124. Language : Chinese

  125. Default : No

  126. Forced : No

  127. Menu

  128. 00:00:00.000 : en:第 01 章

  129. 00:06:09.578 : en:第 02 章

  130. 00:11:27.478 : en:第 03 章

  131. 00:16:58.809 : en:第 04 章

  132. 00:22:36.230 : en:第 05 章

  133. 00:31:24.633 : en:第 06 章

  134. 00:37:36.421 : en:第 07 章

  135. 00:42:43.019 : en:第 08 章

  136. 00:48:55.850 : en:第 09 章

  137. 00:53:58.235 : en:第 10 章

  138. 00:59:27.773 : en:第 11 章

  139. 01:05:52.782 : en:第 12 章

  140. 01:11:56.312 : en:第 13 章

  141. 01:19:50.619 : en:第 14 章

  142. 01:27:57.063 : en:第 15 章

  143. 01:35:30.683 : en:第 16 章


复制代码



文件下载


除非特别注明,本文『黑衣人[共3部合集][简繁英字幕].Men.in.Black.Trilogy.1997-2013.BluRay.1080p.DTS-HD.MA5.1.x265.10bit-ALT 23.50GB』来源于互联网机器人自动抓取,非本站原创。 浮游电影网不对本文拥有版权,如有侵犯,请联系邮箱:fuyouu#yandex.com[#换成@]投诉。我们会在15个工作日内删除。 但烦请转载时请标明出处:“本文转载于『浮游电影网』,原文地址:https://www.fuyouu.com/21186.html

评论吧骚年!

发表你的见解   

昵称*

E-mail*(建议输入,以便收到博主回复的提示邮件)

验证码*

您可以使用eMule或eMule Mod(Windows)、aMule(Win、Linux、Mac)等软件下载eD2k链接。。
eMule收藏集(.emulecollection)文件是您选中的所有链接的列表文件。eMule可以直接下载它们。
按住SHIFT键选择可以选中多个选择框。
可用文件名和大小选择器来选择文件。
文件名选择器帮您根据文件名称或后缀来选择文件。不分大小写。
符号使用:
和:空格( )、+
不包含:-
或:|
转义:一对英文引号("");
匹配开头:^
匹配结尾:$
例如:
选中所有名称中包含有“eMule”或“0.49c”字眼,但不包含有“exe”字眼的:emule|0.49c -exe
选中所有名称的开头是“eMule”,结尾是“0.49c”的:^emule 0.49c$
选中所有名称中带有“eMule 0.49c”的(必须是“eMule 0.49c”,中间没有别的字符,不能是“eMule fake 0.49c”),需要转义:"emule 0.49c"
大小选择器帮您根据文件大小选择文件。