当前位置: 首页 >> 日韩电影 >> 战争与人[共3部合集][简繁字幕].Men.And.War.1-3.1970-1973.BluRay.1080p.DTS-HD.MA.2.0.x265.10bit-ALT 64.72GB >> 正文

战争与人[共3部合集][简繁字幕].Men.And.War.1-3.1970-1973.BluRay.1080p.DTS-HD.MA.2.0.x265.10bit-ALT 64.72GB

2022年04月09日 20:37:52     电影发布:来源于网络     电影分类:日韩电影     评论(0)    

战争与人[共3部合集][简繁字幕].Men.And.War.1 3.1970 1973.BluRay.1080p.DTS HD.MA.2.0.x265.10bit ALT 64.72GB 战争 动作 日韩电影  第1张

◎译 名 战争与人 / 戦争と人間 / 戦争と人間-運命の序曲

◎片 名 戦争と人間?第1部?運命の序曲

◎年 代 1970

◎产 地 日本

◎类 别 动作 / 战争

◎语 言 日语

◎上映日期 1970-08-14(日本)

◎IMDb链接 https://www.imdb.com/title/tt0323921/

◎豆瓣评分 7.9/10 (512人评价)

◎豆瓣链接 https://movie.douban.com/subject/1578548/

◎片 长 197分钟

◎导 演 山本萨夫 Satsuo Yamamoto (id:1010988)

◎编 剧 山田信夫 Nobuo Yamada (id:1301381)

五味川纯平 Jumpei Gomikawa (id:1342066)

◎演 员 泷泽修 Osamu Takizawa (id:1043712)

芦田伸介 Shinsuke Ashida (id:1034499)

高桥悦史 Etsushi Takahashi (id:1025911)

浅丘琉璃子 Ruriko Asaoka (id:1012891)

中村勘三郎 Kanzaburo Nakamura (id:1131111)

山本圭 Kei Yamamoto (id:1012812)

高桥英树 Hideki Takahashi (id:1008456)

铃木瑞穗 Mizuho Suzuki (id:1030549)

伊藤孝雄 Takao Ito (id:1007707)

石原裕次郎 Y?jir? Ishihara (id:1014750)

松原智惠子 Chieko Matsubara (id:1015216)

水户光子 Mitsuko Mito (id:1002227)

高桥幸治 Koji Takahashi (id:1020223)

二谷英明 Hideaki Nitani (id:1008422)

三国连太郎 Rentar? Mikuni (id:1119854)

加藤刚 Go Kato (id:1006454)

岸田今日子 Ky?ko Kishida (id:1048515)

田村高广 Takahiro Tamura (id:1051114)

栗原小卷 Komaki Kurihara (id:1034136)

丹波哲郎 Tetsur? Tanba (id:1157326)

山本学 Gaku Yamamoto (id:1017883)

佐藤万理 Mari Sato (id:1333360)

地井武男 Takeo Chii (id:1048878)

南原宏治 K?ji Nanbara (id:1109098)

佐佐木澄江 Sumie Sasaki (id:1011447)

吉永小百合 Sayuri Yoshinaga (id:1033094)

江原真二郎 Shinjir? Ehara (id:1344437)

佐藤胜 Masaru Sat? (id:1054483)

姫田真佐久 Shinsaku Himeda (id:1218165)

Hiroshi Fukatami Hiroshi Fukatami (id:1308034)

◎简 介

导演山本萨夫是日本电影界社会派大师,他试图通过五代一家的兴盛、衰落来完成一部日本军国主义的侵华战争史。社会大家庭,家庭小社会,五代家本身就参与了对中国的掠夺和侵略,描写这一家的发展变化自然可以举重若轻地体现出那段时间的日本侵华过程。①本部描写的是日本军国主义的侵华上升时期。影片曾获1970年《电影旬报》十佳奖第二名。②这是日本电影界社会派大师山本萨夫所拍反映侵华战争史的第二部。时间是中日对峙阶段,中国的抗日运动开始发展壮大,五代一家也受到影响。影片曾获1971年《电影旬报》十佳奖第四名。③这是日本电影界社会派大师山本萨夫所拍反映侵华战争史的第三部,描写了侵华战争如何从最初的一往无前到节节败退到一败涂地的过程,而五代家庭也从大发战争投机财走向了分崩离析,家中的成员也在这空前激烈的动荡中选择了各自不同的道路和归宿。三部曲拉开了日本电影1970年代波澜壮阔...

  1. 合集文件列表:

  2. 1.Men.And.War.I.1970.BluRay.1080p.DTS-HD.MA.2.0.x265.10bit-ALT.mkv 25.60GB

  3. 2.Men.And.War.II.1971.BluRay.1080p.DTS-HD.MA.2.0.x265.10bit-ALT.mkv 20.21GB

  4. 3.Men.And.War.III.1973.BluRay.1080p.DTS-HD.MA.2.0.x265.10bit-ALT.mkv 18.91GB


复制代码

  1. ##### MediaInfo ######

  2. General

  3. Unique ID : 57273234948613574997070306316728494013 (0x2B166C7F76C7A643E68A8173324567BD)

  4. Complete name : Men.And.War.I.1970.BluRay.1080p.DTS-HD.MA.2.0.x265.10bit-BeiTai.mkv

  5. Format : Matroska

  6. Format version : Version 4

  7. File size : 25.6 GiB

  8. Duration : 3 h 17 min

  9. Overall bit rate mode : Variable

  10. Overall bit rate : 18.6 Mb/s

  11. Encoded date : UTC 2021-03-16 12:33:26

  12. Writing application : mkvmerge v49.0.0 ('Sick Of Losing Soulmates') 64-bit

  13. Writing library : libebml v1.4.0 + libmatroska v1.6.1

  14. Video

  15. ID : 1

  16. Format : HEVC

  17. Format/Info : High Efficiency Video Coding

  18. Format profile : Main [email protected]@High

  19. Codec ID : V_MPEGH/ISO/HEVC

  20. Duration : 3 h 17 min

  21. Bit rate : 16.6 Mb/s

  22. Width : 1 920 pixels

  23. Height : 788 pixels

  24. Display aspect ratio : 2.40:1

  25. Frame rate mode : Constant

  26. Frame rate : 23.976 (24000/1001/53354) FPS

  27. Color space : YUV

  28. Chroma subsampling : 4:2:0

  29. Bit depth : 10 bits

  30. Bits/(Pixel*Frame) : 0.458

  31. Stream size : 22.9 GiB (89%)

  32. Title : HEVC, [email protected]@High, 24/1.001 fps @ 16602 kbps

  33. Writing library : x265 3.4+14-gd419c7152:[Windows][GCC 10.2.0][64 bit] 10bit

  34. Encoding settings : cpuid=533541111039 / frame-threads=5 / numa-pools=44,44 / wpp / pmode / pme / no-psnr / no-ssim / log-level=2 / input-csp=1 / input-res=1920x788 / interlace=0 / total-frames=283464 / level-idc=51 / high-tier=1 / uhd-bd=0 / ref=5 / no-allow-non-conformance / no-repeat-headers / annexb / no-aud / no-hrd / info / hash=0 / no-temporal-layers / open-gop / min-keyint=24 / keyint=240 / gop-lookahead=0 / bframes=6 / b-adapt=2 / b-pyramid / bframe-bias=0 / rc-lookahead=40 / lookahead-slices=0 / NTMzNTQ=uuDQuD2mJt9fsCf / scenecut=40 / hist-scenecut=0 / radl=0 / no-splice / no-intra-refresh / ctu=32 / min-cu-size=8 / no-rect / no-amp / max-tu-size=32 / tu-inter-depth=3 / tu-intra-depth=3 / limit-tu=4 / rdoq-level=2 / dynamic-rd=0.00 / no-ssim-rd / signhide / no-tskip / nr-intra=0 / nr-inter=0 / no-constrained-intra / no-strong-intra-smoothing / max-merge=4 / limit-refs=1 / limit-modes / me=3 / subme=4 / merange=25 / temporal-mvp / no-frame-dup / no-hme / weightp / weightb / no-analyze-src-pics / deblock=-3:-3 / no-sao / no-sao-non-deblock / rd=6 / selective-sao=0 / no-early-skip / rskip / no-fast-intra / no-tskip-fast / no-cu-lossless / b-intra / no-splitrd-skip / rdpenalty=0 / psy-rd=2.00 / psy-rdoq=1.00 / no-rd-refine / no-lossless / cbqpoffs=0 / crqpoffs=0 / rc=crf / crf=22.0 / qcomp=0.65 / qpstep=4 / stats-write=0 / stats-read=0 / vbv-maxrate=80000 / vbv-bufsize=80000 / vbv-init=0.9 / crf-max=0.0 / crf-min=0.0 / ipratio=1.40 / pbratio=1.30 / aq-mode=2 / aq-strength=0.85 / cutree / zone-count=0 / no-strict-cbr / qg-size=32 / no-rc-grain / qpmax=69 / qpmin=0 / no-const-vbv / sar=1 / overscan=0 / videoformat=5 / range=0 / colorprim=1 / transfer=1 / colormatrix=1 / chromaloc=0 / display-window=0 / cll=0,0 / min-luma=0 / max-luma=1023 / log2-max-poc-lsb=8 / vui-timing-info / vui-hrd-info / slices=1 / no-opt-qp-pps / no-opt-ref-list-length-pps / no-multi-pass-opt-rps / scenecut-bias=0.05 / hist-threshold=0.03 / no-opt-cu-delta-qp / no-aq-motion / no-hdr10 / no-hdr10-opt / no-dhdr10-opt / no-idr-recovery-sei / analysis-reuse-level=0 / analysis-save-reuse-level=0 / analysis-load-reuse-level=0 / scale-factor=0 / refine-intra=0 / refine-inter=0 / refine-mv=1 / refine-ctu-distortion=0 / no-limit-sao / ctu-info=0 / no-lowpass-dct / refine-analysis-type=0 / copy-pic=1 / max-ausize-factor=1.0 / no-dynamic-refine / no-single-sei / no-hevc-aq / no-svt / no-field / qp-adaptation-range=1.00 / no-scenecut-aware-qpconformance-window-offsets / right=0 / bottom=0 / NTMzNTQ= / decoder-max-rate=0

  35. Language : English

  36. Default : Yes

  37. Forced : No

  38. Color range : Limited

  39. Color primaries : BT.709

  40. Transfer characteristics : BT.709

  41. Matrix coefficients : BT.709

  42. Audio

  43. ID : 2

  44. Format : DTS XLL

  45. Format/Info : Digital Theater Systems

  46. Commercial name : DTS-HD Master Audio

  47. Codec ID : A_DTS

  48. Duration : 3 h 17 min

  49. Bit rate mode : Variable

  50. Bit rate : 1 523 kb/s

  51. Channel(s) : 2 channels

  52. Channel layout : L R

  53. Sampling rate : 48.0 kHz

  54. Frame rate : 93.750 FPS (512 SPF)

  55. Bit depth : 24 bits

  56. Compression mode : Lossless

  57. Stream size : 2.10 GiB (8%)

  58. Title : Japanese DTS-HD Master Audio 2.0 @ 1524 kbps

  59. Language : Japanese

  60. Default : Yes

  61. Forced : No

  62. Text #1

  63. ID : 3

  64. Format : PGS

  65. Codec ID : S_HDMV/PGS

  66. Codec ID/Info : Picture based subtitle format used on BDs/HD-DVDs

  67. Duration : 3 h 2 min

  68. Bit rate : 17.4 kb/s

  69. Count of elements : 1285

  70. Stream size : 22.7 MiB (0%)

  71. Title : Jpn/SUP

  72. Language : Japanese

  73. Default : No

  74. Forced : No

  75. Text #2

  76. ID : 4

  77. Format : PGS

  78. Codec ID : S_HDMV/PGS

  79. Codec ID/Info : Picture based subtitle format used on BDs/HD-DVDs

  80. Duration : 3 h 16 min

  81. Bit rate : 404 kb/s

  82. Count of elements : 21458

  83. Stream size : 568 MiB (2%)

  84. Title : Jpn/SUP

  85. Language : Japanese

  86. Default : No

  87. Forced : No

  88. Text #3

  89. ID : 5

  90. Format : PGS

  91. Codec ID : S_HDMV/PGS

  92. Codec ID/Info : Picture based subtitle format used on BDs/HD-DVDs

  93. Duration : 3 h 15 min

  94. Bit rate : 24.6 kb/s

  95. Count of elements : 3036

  96. Stream size : 34.4 MiB (0%)

  97. Title : Chs/SUP 简体

  98. Language : Chinese

  99. Default : Yes

  100. Forced : No

  101. Text #4

  102. ID : 6

  103. Format : PGS

  104. Codec ID : S_HDMV/PGS

  105. Codec ID/Info : Picture based subtitle format used on BDs/HD-DVDs

  106. Duration : 3 h 15 min

  107. Bit rate : 25.4 kb/s

  108. Count of elements : 3036

  109. Stream size : 35.5 MiB (0%)

  110. Title : Cht/SUP 繁体

  111. Language : Chinese

  112. Default : No

  113. Forced : No

  114. Menu

  115. 00:00:00.000 : :第 01 章

  116. 00:05:05.972 : :第 02 章

  117. 00:09:12.093 : :第 03 章

  118. 00:11:10.837 : :第 04 章

  119. 00:17:22.208 : :第 05 章

  120. 00:22:15.376 : :第 06 章

  121. 00:36:56.965 : :第 07 章

  122. 00:44:52.356 : :第 08 章

  123. 00:58:26.586 : :第 09 章

  124. 01:07:55.238 : :第 10 章

  125. 01:13:22.690 : :第 11 章

  126. 01:30:13.408 : :第 12 章

  127. 01:30:59.454 : :第 13 章

  128. 01:38:49.340 : :第 14 章

  129. 01:53:34.307 : :第 15 章

  130. 02:02:21.292 : :第 16 章

  131. 02:10:19.145 : :第 17 章

  132. 02:14:35.359 : :第 18 章

  133. 02:30:20.053 : :第 19 章

  134. 02:35:30.571 : :第 20 章

  135. 02:43:39.476 : :第 21 章

  136. 02:49:13.352 : :第 22 章

  137. 02:54:57.987 : :第 23 章

  138. 03:08:53.322 : :第 24 章


复制代码



文件下载


除非特别注明,本文『战争与人[共3部合集][简繁字幕].Men.And.War.1-3.1970-1973.BluRay.1080p.DTS-HD.MA.2.0.x265.10bit-ALT 64.72GB』来源于互联网机器人自动抓取,非本站原创。 浮游电影网不对本文拥有版权,如有侵犯,请联系邮箱:fuyouu#yandex.com[#换成@]投诉。我们会在15个工作日内删除。 但烦请转载时请标明出处:“本文转载于『浮游电影网』,原文地址:https://www.fuyouu.com/21185.html

评论吧骚年!

发表你的见解   

昵称*

E-mail*(建议输入,以便收到博主回复的提示邮件)

验证码*

您可以使用eMule或eMule Mod(Windows)、aMule(Win、Linux、Mac)等软件下载eD2k链接。。
eMule收藏集(.emulecollection)文件是您选中的所有链接的列表文件。eMule可以直接下载它们。
按住SHIFT键选择可以选中多个选择框。
可用文件名和大小选择器来选择文件。
文件名选择器帮您根据文件名称或后缀来选择文件。不分大小写。
符号使用:
和:空格( )、+
不包含:-
或:|
转义:一对英文引号("");
匹配开头:^
匹配结尾:$
例如:
选中所有名称中包含有“eMule”或“0.49c”字眼,但不包含有“exe”字眼的:emule|0.49c -exe
选中所有名称的开头是“eMule”,结尾是“0.49c”的:^emule 0.49c$
选中所有名称中带有“eMule 0.49c”的(必须是“eMule 0.49c”,中间没有别的字符,不能是“eMule fake 0.49c”),需要转义:"emule 0.49c"
大小选择器帮您根据文件大小选择文件。