当前位置: 首页 >> 欧美电影 >> 拜见岳父大人[共3部合集][繁英字幕].Meet.the.Parents.1-3.2000-2010.BluRay.1080p.DTS-HD.MA5.1.x265.10bit-ALT 33.68GB >> 正文

拜见岳父大人[共3部合集][繁英字幕].Meet.the.Parents.1-3.2000-2010.BluRay.1080p.DTS-HD.MA5.1.x265.10bit-ALT 33.68GB

2022年04月09日 20:36:31     电影发布:来源于网络     电影分类:欧美电影     评论(0)    

拜见岳父大人[共3部合集][繁英字幕].Meet.the.Parents.1 3.2000 2010.BluRay.1080p.DTS HD.MA5.1.x265.10bit ALT 33.68GB 爱情 喜剧 欧美电影  第1张

◎译 名 拜见岳父大人 / 非常外父拣女婿(港) / 门当父不对(台) / 拜见岳父岳母 / 拜见岳父母大人 / 非常女婿 / 拜见亲家

◎片 名 Meet the Parents

◎年 代 2000

◎产 地 美国

◎类 别 喜剧 / 爱情

◎语 言 英语 / 泰语 / 西班牙语 / 希伯来语 / 法语

◎上映日期 2000-10-06(美国)

◎IMDb链接 https://www.imdb.com/title/tt0212338/

◎豆瓣评分 7.1/10 (57102人评价)

◎豆瓣链接 https://movie.douban.com/subject/1294829/

◎片 长 108分钟

◎导 演 杰伊·罗奇 Jay Roach (id:1018081)

◎编 剧 吉姆·赫兹菲尔德 Jim Herzfeld (id:1320274)

约翰·汉博格 John Hamburg (id:1018214)

格雷格·格列娜 Greg Glienna (id:1050627)

玛丽·露丝·克拉克 Mary Ruth Clarke (id:1025058)

◎演 员 罗伯特·德尼罗 Robert De Niro (id:1054445)

本·斯蒂勒 Ben Stiller (id:1054412)

特丽·波洛 Teri Polo (id:1019032)

布莱思·丹纳 Blythe Danner (id:1007014)

欧文·威尔逊 Owen Wilson (id:1006964)

汤姆·麦卡锡 Tom McCarthy (id:1004746)

童自荣 Zirong Tong (id:1318216)

詹姆斯·瑞布霍恩 James Rebhorn (id:1049801)

沈晓谦 Xiaoqian Shen (id:1347970)

乔恩·亚伯拉罕斯 Jon Abrahams (id:1055250)

罗素·霍恩斯比 Russell Hornsby (id:1286928)

约翰·菲奥里 John Fiore (id:1283759)

罗比·布赖恩 Robbie Bryan (id:1279515)

G.A. Aguilar G.A. Aguilar (id:1304383)

科迪艾伦斯 Cody Arens (id:1277372)

罗伯特·德尼罗 Robert De Niro (id:1054445)

Nancy Tenenbaum Nancy Tenenbaum (id:1299049)

兰迪·纽曼 Randy Newman (id:1036596)

Greg Hayden Greg Hayden (id:1286274)

Ellen Chenoweth Ellen Chenoweth (id:1280600)

John Kasarda John Kasarda (id:1288158)

Rusty Smith Rusty Smith (id:1297939)

丹尼尔·奥兰迪 Daniel Orlandi (id:1293628)

Carla White Carla White (id:1300794)

埃米·劳瑞森 Amy Lauritsen (id:1289521)

◎简 介

格雷戈(Ben Stiller 本?斯蒂勒 饰)准备向相恋多年的女友潘米拉(Teri Polo特莉?保罗 饰)求婚时,意外获悉了求婚成功成功与否,不仅要过美人关,更要过岳父关。潘米拉的姐姐下个礼拜即将举行婚礼,届时格雷戈将和潘米拉一起回家参加婚礼。小伙子心想这次正是讨好未来岳父,搞定岳父那关的大好时机。

格雷戈的名字在美语中很容易被理解成“同性恋?性交者”的意思,有着这么个稀奇古怪的名字,注定格雷戈拜见未来岳父之行不会如他所料那般顺利。

果然,当他们来到了潘米拉家时,格雷戈虽然表现得文质彬彬,但当他总是插话时力图幽默却效果相反时,未来岳父(罗伯特?德尼罗 Robert De Niro 饰)的脸色越来越难看。

◎获奖情况 (共2项)

第73届奥斯卡金像奖 (2001)

最佳原创歌曲(提名)

└──兰迪·纽曼 (id:1036596)

第58届金球奖 (2001)

电影类 音乐/喜剧片最佳男主角(提名)

└──罗伯特·德尼罗 (id:1054445)

  1. 合集文件列表:

  2. 1.Little.Fockers.2010.BluRay.1080p.DTS-HD.MA5.1.x265.10bit-ALT.mkv 10.14GB

  3. 2.Meet.The.Fockers.2004.BluRay.1080p.DTS-HD.MA5.1.x265.10bit-ALT.mkv 14.73GB

  4. 3.Meet.the.Parents.2000.BluRay.1080p.DTS-HD.MA5.1.x265.10bit-ALT.mkv 8.81GB


复制代码

  1. ##### MediaInfo ######

  2. General

  3. Unique ID : 60847136634902903656682611489921702841 (0x2DC6BB74931CC1415448C73D9D021BB9)

  4. Complete name : Little.Fockers.2010.BluRay.1080p.DTS-HD.MA5.1.x265.10bit-BeiTai.mkv

  5. Format : Matroska

  6. Format version : Version 4

  7. File size : 10.1 GiB

  8. Duration : 1 h 37 min

  9. Overall bit rate mode : Variable

  10. Overall bit rate : 14.9 Mb/s

  11. Encoded date : UTC 2021-08-10 03:14:00

  12. Writing application : mkvmerge v49.0.0 ('Sick Of Losing Soulmates') 64-bit

  13. Writing library : libebml v1.4.0 + libmatroska v1.6.1

  14. Video

  15. ID : 1

  16. Format : HEVC

  17. Format/Info : High Efficiency Video Coding

  18. Format profile : Main [email protected]@High

  19. Codec ID : V_MPEGH/ISO/HEVC

  20. Duration : 1 h 37 min

  21. Bit rate : 11.4 Mb/s

  22. Width : 1 920 pixels

  23. Height : 1 040 pixels

  24. Display aspect ratio : 1.85:1

  25. Frame rate mode : Constant

  26. Frame rate : 23.976 (24000/1001/53354) FPS

  27. Color space : YUV

  28. Chroma subsampling : 4:2:0

  29. Bit depth : 10 bits

  30. Bits/(Pixel*Frame) : 0.239

  31. Stream size : 7.82 GiB (77%)

  32. Title : HEVC, x[email protected]@High, 24/1.001 fps @ 11442 kbps

  33. Writing library : x265 3.4+14-gd419c7152:[Windows][GCC 10.2.0][64 bit] 10bit

  34. Encoding settings : cpuid=533541111039 / frame-threads=3 / numa-pools=8 / wpp / pmode / pme / no-psnr / no-ssim / log-level=2 / input-csp=1 / input-res=1920x1040 / interlace=0 / total-frames=140689 / level-idc=51 / high-tier=1 / uhd-bd=0 / ref=5 / no-allow-non-conformance / no-repeat-headers / annexb / no-aud / no-hrd / info / hash=0 / no-temporal-layers / open-gop / min-keyint=24 / keyint=240 / gop-lookahead=0 / bframes=6 / b-adapt=2 / b-pyramid / bframe-bias=0 / rc-lookahead=40 / lookahead-slices=0 / NTMzNTQ=uuDQuD2mJt9fsCf / scenecut=40 / hist-scenecut=0 / radl=0 / no-splice / no-intra-refresh / ctu=32 / min-cu-size=8 / no-rect / no-amp / max-tu-size=32 / tu-inter-depth=3 / tu-intra-depth=3 / limit-tu=4 / rdoq-level=2 / dynamic-rd=0.00 / no-ssim-rd / signhide / no-tskip / nr-intra=0 / nr-inter=0 / no-constrained-intra / no-strong-intra-smoothing / max-merge=4 / limit-refs=1 / limit-modes / me=3 / subme=4 / merange=25 / temporal-mvp / no-frame-dup / no-hme / weightp / weightb / no-analyze-src-pics / deblock=-3:-3 / no-sao / no-sao-non-deblock / rd=6 / selective-sao=0 / no-early-skip / rskip / no-fast-intra / no-tskip-fast / no-cu-lossless / b-intra / no-splitrd-skip / rdpenalty=0 / psy-rd=2.00 / psy-rdoq=1.00 / no-rd-refine / no-lossless / cbqpoffs=0 / crqpoffs=0 / rc=crf / crf=17.0 / qcomp=0.65 / qpstep=4 / stats-write=0 / stats-read=0 / vbv-maxrate=80000 / vbv-bufsize=80000 / vbv-init=0.9 / crf-max=0.0 / crf-min=0.0 / ipratio=1.40 / pbratio=1.30 / aq-mode=2 / aq-strength=0.85 / cutree / zone-count=0 / no-strict-cbr / qg-size=32 / no-rc-grain / qpmax=69 / qpmin=0 / no-const-vbv / sar=1 / overscan=0 / videoformat=5 / range=0 / colorprim=1 / transfer=1 / colormatrix=1 / chromaloc=0 / display-window=0 / cll=0,0 / min-luma=0 / max-luma=1023 / log2-max-poc-lsb=8 / vui-timing-info / vui-hrd-info / slices=1 / no-opt-qp-pps / no-opt-ref-list-length-pps / no-multi-pass-opt-rps / scenecut-bias=0.05 / hist-threshold=0.03 / no-opt-cu-delta-qp / no-aq-motion / no-hdr10 / no-hdr10-opt / no-dhdr10-opt / no-idr-recovery-sei / analysis-reuse-level=0 / analysis-save-reuse-level=0 / analysis-load-reuse-level=0 / scale-factor=0 / refine-intra=0 / refine-inter=0 / refine-mv=1 / refine-ctu-distortion=0 / no-limit-sao / ctu-info=0 / no-lowpass-dct / refine-analysis-type=0 / copy-pic=1 / max-ausize-factor=1.0 / no-dynamic-refine / no-single-sei / no-hevc-aq / no-svt / no-field / qp-adaptation-range=1.00 / no-scenecut-aware-qpconformance-window-offsets / right=0 / bottom=0 / NTMzNTQ= / decoder-max-rate=0

  35. Language : English

  36. Default : Yes

  37. Forced : No

  38. Color range : Limited

  39. Color primaries : BT.709

  40. Transfer characteristics : BT.709

  41. Matrix coefficients : BT.709

  42. Audio

  43. ID : 2

  44. Format : DTS XLL

  45. Format/Info : Digital Theater Systems

  46. Commercial name : DTS-HD Master Audio

  47. Codec ID : A_DTS

  48. Duration : 1 h 37 min

  49. Bit rate mode : Variable

  50. Bit rate : 3 275 kb/s

  51. Channel(s) : 6 channels

  52. Channel layout : C L R Ls Rs LFE

  53. Sampling rate : 48.0 kHz

  54. Frame rate : 93.750 FPS (512 SPF)

  55. Bit depth : 24 bits

  56. Compression mode : Lossless

  57. Stream size : 2.24 GiB (22%)

  58. Title : English DTS-HD Master Audio 5.1 @ 33275 kbps

  59. Language : English

  60. Default : Yes

  61. Forced : No

  62. Text #1

  63. ID : 3

  64. Format : PGS

  65. Codec ID : S_HDMV/PGS

  66. Codec ID/Info : Picture based subtitle format used on BDs/HD-DVDs

  67. Duration : 1 h 32 min

  68. Bit rate : 64.4 kb/s

  69. Count of elements : 3624

  70. Stream size : 42.6 MiB (0%)

  71. Title : Eng/SUP

  72. Language : English

  73. Default : No

  74. Forced : No

  75. Text #2

  76. ID : 4

  77. Format : PGS

  78. Codec ID : S_HDMV/PGS

  79. Codec ID/Info : Picture based subtitle format used on BDs/HD-DVDs

  80. Duration : 1 h 32 min

  81. Bit rate : 34.6 kb/s

  82. Count of elements : 3216

  83. Stream size : 22.9 MiB (0%)

  84. Title : Cht/SUP 繁体(HK)

  85. Language : Chinese

  86. Default : No

  87. Forced : No

  88. Text #3

  89. ID : 5

  90. Format : PGS

  91. Codec ID : S_HDMV/PGS

  92. Codec ID/Info : Picture based subtitle format used on BDs/HD-DVDs

  93. Duration : 1 h 32 min

  94. Bit rate : 37.7 kb/s

  95. Count of elements : 3746

  96. Stream size : 25.0 MiB (0%)

  97. Title : Cht/SUP 繁体(TW)

  98. Language : Chinese

  99. Default : Yes

  100. Forced : No

  101. Menu

  102. 00:00:00.000 : en:第 01 章

  103. 00:03:02.891 : en:第 02 章

  104. 00:08:45.358 : en:第 03 章

  105. 00:12:11.731 : en:第 04 章

  106. 00:15:11.744 : en:第 05 章

  107. 00:20:26.016 : en:第 06 章

  108. 00:28:40.385 : en:第 07 章

  109. 00:33:50.570 : en:第 08 章

  110. 00:37:37.005 : en:第 09 章

  111. 00:40:15.913 : en:第 10 章

  112. 00:44:57.486 : en:第 11 章

  113. 00:49:33.053 : en:第 12 章

  114. 00:54:41.487 : en:第 13 章

  115. 00:58:29.464 : en:第 14 章

  116. 01:02:21.196 : en:第 15 章

  117. 01:08:39.449 : en:第 16 章

  118. 01:13:48.883 : en:第 17 章

  119. 01:20:46.467 : en:第 18 章

  120. 01:26:56.253 : en:第 19 章

  121. 01:31:31.444 : en:第 20 章


复制代码



文件下载


除非特别注明,本文『拜见岳父大人[共3部合集][繁英字幕].Meet.the.Parents.1-3.2000-2010.BluRay.1080p.DTS-HD.MA5.1.x265.10bit-ALT 33.68GB』来源于互联网机器人自动抓取,非本站原创。 浮游电影网不对本文拥有版权,如有侵犯,请联系邮箱:fuyouu#yandex.com[#换成@]投诉。我们会在15个工作日内删除。 但烦请转载时请标明出处:“本文转载于『浮游电影网』,原文地址:https://www.fuyouu.com/21184.html

评论吧骚年!

发表你的见解   

昵称*

E-mail*(建议输入,以便收到博主回复的提示邮件)

验证码*

您可以使用eMule或eMule Mod(Windows)、aMule(Win、Linux、Mac)等软件下载eD2k链接。。
eMule收藏集(.emulecollection)文件是您选中的所有链接的列表文件。eMule可以直接下载它们。
按住SHIFT键选择可以选中多个选择框。
可用文件名和大小选择器来选择文件。
文件名选择器帮您根据文件名称或后缀来选择文件。不分大小写。
符号使用:
和:空格( )、+
不包含:-
或:|
转义:一对英文引号("");
匹配开头:^
匹配结尾:$
例如:
选中所有名称中包含有“eMule”或“0.49c”字眼,但不包含有“exe”字眼的:emule|0.49c -exe
选中所有名称的开头是“eMule”,结尾是“0.49c”的:^emule 0.49c$
选中所有名称中带有“eMule 0.49c”的(必须是“eMule 0.49c”,中间没有别的字符,不能是“eMule fake 0.49c”),需要转义:"emule 0.49c"
大小选择器帮您根据文件大小选择文件。