当前位置: 首页 >> 国产电影 >> 大侦探马修[国语配音/中文字幕].Detective.Mashimaro.2022.2160p.WEB-DL.H265.AAC-NewWEB 2.30GB >> 正文

大侦探马修[国语配音/中文字幕].Detective.Mashimaro.2022.2160p.WEB-DL.H265.AAC-NewWEB 2.30GB

2022年04月07日 21:11:27     电影发布:来源于网络     电影分类:国产电影     评论(0)    

image.png

◎译 名 大侦探马修

◎年 代 2021

◎IMDb链接 https://www.imdb.com/title//

◎豆瓣链接 https://movie.douban.com/subject/35208498/

◎简 介

流氓兔cg真人电影

  1. ##### MediaInfo ######

  2. General

  3. Unique ID : 212069217023295173725650685140823842272 (0x9F8B0BA82B0A441C969C260046C21DE0)

  4. Complete name : Detective.Mashimaro.2022.2160p.WEB-DL.H265.AAC-PTerWEB.mkv

  5. Format : Matroska

  6. Format version : Version 4

  7. File size : 2.30 GiB

  8. Duration : 1 h 24 min

  9. Overall bit rate : 3 922 kb/s

  10. Encoded date : UTC 2022-04-06 07:35:03

  11. Writing application : mkvmerge v58.0.0 ('Supper's Ready') 64-bit

  12. Writing library : libebml v1.4.2 + libmatroska v1.6.4

  13. Video

  14. ID : 1

  15. Format : HEVC

  16. Format/Info : High Efficiency Video Coding

  17. Format profile : [email protected]@Main

  18. Codec ID : V_MPEGH/ISO/HEVC

  19. Duration : 1 h 24 min

  20. Bit rate : 3 731 kb/s

  21. Width : 3 840 pixels

  22. Height : 1 664 pixels

  23. Display aspect ratio : 2.35:1

  24. Frame rate mode : Constant

  25. Frame rate : 25.000 FPS

  26. Color space : YUV

  27. Chroma subsampling : 4:2:0

  28. Bit depth : 8 bits

  29. Bits/(Pixel*Frame) : 0.023

  30. Stream size : 2.19 GiB (95%)

  31. Language : Chinese

  32. Default : Yes

  33. Forced : No

  34. Audio

  35. ID : 2

  36. Format : AAC LC

  37. Format/Info : Advanced Audio Codec Low Complexity

  38. Codec ID : A_AAC-2

  39. Duration : 1 h 24 min

  40. Bit rate : 192 kb/s

  41. Channel(s) : 2 channels

  42. Channel layout : L R

  43. Sampling rate : 44.1 kHz

  44. Frame rate : 43.066 FPS (1024 SPF)

  45. Compression mode : Lossy

  46. Stream size : 114 MiB (5%)

  47. Language : Chinese

  48. Default : Yes

  49. Forced : No


复制代码



文件下载


除非特别注明,本文『大侦探马修[国语配音/中文字幕].Detective.Mashimaro.2022.2160p.WEB-DL.H265.AAC-NewWEB 2.30GB』来源于互联网机器人自动抓取,非本站原创。 浮游电影网不对本文拥有版权,如有侵犯,请联系邮箱:fuyouu#yandex.com[#换成@]投诉。我们会在15个工作日内删除。 但烦请转载时请标明出处:“本文转载于『浮游电影网』,原文地址:https://www.fuyouu.com/21176.html

评论吧骚年!

发表你的见解   

昵称*

E-mail*(建议输入,以便收到博主回复的提示邮件)

验证码*

您可以使用eMule或eMule Mod(Windows)、aMule(Win、Linux、Mac)等软件下载eD2k链接。。
eMule收藏集(.emulecollection)文件是您选中的所有链接的列表文件。eMule可以直接下载它们。
按住SHIFT键选择可以选中多个选择框。
可用文件名和大小选择器来选择文件。
文件名选择器帮您根据文件名称或后缀来选择文件。不分大小写。
符号使用:
和:空格( )、+
不包含:-
或:|
转义:一对英文引号("");
匹配开头:^
匹配结尾:$
例如:
选中所有名称中包含有“eMule”或“0.49c”字眼,但不包含有“exe”字眼的:emule|0.49c -exe
选中所有名称的开头是“eMule”,结尾是“0.49c”的:^emule 0.49c$
选中所有名称中带有“eMule 0.49c”的(必须是“eMule 0.49c”,中间没有别的字符,不能是“eMule fake 0.49c”),需要转义:"emule 0.49c"
大小选择器帮您根据文件大小选择文件。