当前位置: 首页 >> 港台电影 >> 铁旗门[国语音轨].The.Flag.of.Iron.1980.720p.BluRay.x264-CiNEPHiLiA 3.79GB >> 正文

铁旗门[国语音轨].The.Flag.of.Iron.1980.720p.BluRay.x264-CiNEPHiLiA 3.79GB

2022年04月06日 23:17:32     电影发布:来源于网络     电影分类:港台电影     评论(0)    

铁旗门[国语音轨].The.Flag.of.Iron.1980.720p.BluRay.x264 CiNEPHiLiA 3.79GB 武侠 动作 剧情 港台电影  第1张

◎译 名 铁旗门 / The Flag Of Iron

◎片 名 鐵旗門

◎年 代 1980

◎产 地 中国香港

◎类 别 剧情 / 动作 / 武侠

◎语 言 汉语普通话

◎上映日期 1980-08-14

◎IMDb链接 https://www.imdb.com/title/tt0080743/

◎豆瓣评分 7.0/10 (1162人评价)

◎豆瓣链接 https://movie.douban.com/subject/1855629/

◎片 长 USA: 113 分钟

◎导 演 张彻 Cheh Chang (id:1007232)

◎编 剧 张彻 Cheh Chang (id:1007232)

◎演 员 江生 Sheng Chiang (id:1003546)

鹿峰 Feng Lu (id:1045851)

龙天翔 Tien-Hsiang Lung (id:1323182)

王力 Wong Lik (id:1348713)

洪新南 Hsin Nan Hung (id:1383214)

尹尚林 Hsiang Lin Yin (id:1406340)

王华 Hua Wang (id:1357379)

魏添财 (id:1466181)

詹森 Shen Chan (id:1033442)

王清河 Ching-Ho Wang (id:1077298)

余太平 Tai-ping Yu (id:1361087)

林志泰 Chi Tai Lam (id:1433961)

刘准 Cheun Lau (id:1429075)

梁心 Hsin Liang (id:1427057)

林威 Wai Lam (id:1289306)

薛春炜 Ailen Sit (id:1297716)

关锋 Kwan Fung (id:1329428)

林秀君 Hsiu Chun Lin (id:1337696)

冯敬文 Ging Man Fung (id:1341397)

王憾尘 Han Chen Wang (id:1413061)

林辉煌 Fai Wong Lam (id:1335072)

蒋金 Kam Cheung (id:1344087)

刘晃世 Huang-Hsi Liu (id:1413056)

梁耀文 Yao-wen Liang (id:1417487)

谭镇渡 Tony Tam Chun-To (id:1417488)

张石庵 Shih-Ou Chang (id:1417190)

郭追 Philip Kwok (id:1028425)

方逸华 Mona Fong (id:1283933)

陈列 Lieh Chen (id:1413049)

邵逸夫 Run Run Shaw (id:1027801)

王居仁 Eddie Wang (id:1340309)

曹惠琪 Hui-Chi Tsao (id:1423758)

李炎海 Yen Hai Li (id:1423751)

曹庄生 Johnson Tsao (id:1377534)

吴绪清 Hsu-Ching Wu (id:1354216)

徐炳光 (id:1377250)

卢远鸣 Lucas Lowe (id:1410930)

彭雁联 Yen-Lien Peng (id:1330723)

◎简 介

江湖向来纷争不断,两大门派铁旗门和神鹰堂一直对立,都想将对方连根拔起。一日,神鹰堂的的堂主给铁旗门掌门铁麟(郭振锋 饰)发了一封请罪贴,邀请铁麟前往神鹰堂赴宴,以冰释前嫌,化解两派矛盾。铁麟认为这其中必然有诈,正想拒绝,但大弟子曹风(鹿峰 饰)则认为不如将计就计,杀他们一个措手不及。铁麟认为有道理,于是带领一众弟子一起前往神鹰堂。果然,神鹰堂里十面埋伏,铁麟和弟子奋力将敌人一一击退,不料,意外发生了!

  1. Video

  2. ID : 1

  3. Format : AVC

  4. Format/Info : Advanced Video Codec

  5. Format profile : [email protected]

  6. Format settings : CABAC / 8 Ref Frames

  7. Format settings, CABAC : Yes

  8. Format settings, Reference frames : 8 frames

  9. Codec ID : V_MPEG4/ISO/AVC

  10. Duration : 1 h 53 min

  11. Bit rate : 4 080 kb/s

  12. Width : 1 280 pixels

  13. Height : 540 pixels

  14. Display aspect ratio : 2.40:1

  15. Frame rate mode : Constant

  16. Frame rate : 23.976 (24000/1001/53354) FPS

  17. Color space : YUV

  18. Chroma subsampling : 4:2:0

  19. Bit depth : 8 bits

  20. Scan type : Progressive

  21. Bits/(Pixel*Frame) : 0.246

  22. Stream size : 3.23 GiB (85%)

  23. Writing library : x264 core 164 r3094 bfc87b7

  24. Encoding settings : cabac=1 / ref=8 / deblock=1:-3:-3 / analyse=0x3:0x133 / me=umh / subme=9 / psy=1 / psy_rd=1.00:0.00 / mixed_ref=1 / me_range=24 / chroma_me=1 / trellis=2 / 8x8dct=1 / cqm=0 / deadzone=21,11 / fast_pskip=0 / chroma_qp_offset=-2 / threads=17 / lookahead_threads=1 / sliced_threads=0 / nr=0 / decimate=0 / interlaced=0 / NTMzNTQ= / bluray_compat=0 / constrained_intra=0 / bframes=5 / b_pyramid=2 / b_adapt=2 / b_bias=0 / direct=3 / weightb=1 / open_gop=0 / weightp=2 / keyint=250 / keyint_min=23 / NTMzNTQ=uuDQuD2mJt9fsCf / scenecut=40 / intra_refresh=0 / rc_lookahead=60 / rc=crf / mbtree=0 / crf=17.0 / qcomp=0.60 / qpmin=0 / qpmax=69 / qpstep=4 / vbv_maxrate=62500 / vbv_bufsize=78125 / crf_max=0.0 / nal_hrd=none / filler=0 / NTMzNTQ=LmsMAP37EqsCpk / ip_ratio=1.40 / pb_ratio=1.30 / aq=3:0.68

  25. Default : Yes

  26. Forced : No


  27. Audio #1

  28. ID : 2

  29. Format : FLAC

  30. Format/Info : Free Lossless Audio Codec

  31. Codec ID : A_FLAC

  32. Duration : 1 h 53 min

  33. Bit rate mode : Variable

  34. Bit rate : 581 kb/s

  35. Channel(s) : 1 channel

  36. Channel layout : C

  37. Sampling rate : 48.0 kHz

  38. Frame rate : 11.719 FPS (4096 SPF)

  39. Bit depth : 24 bits

  40. Compression mode : Lossless

  41. Stream size : 470 MiB (12%)

  42. Writing library : libFLAC 1.3.4 (UTC 2022-02-20)

  43. Language : Chinese

  44. Default : Yes

  45. Forced : No


  46. Audio #2

  47. ID : 3

  48. Format : AAC LC

  49. Format/Info : Advanced Audio Codec Low Complexity

  50. Codec ID : A_AAC-2

  51. Duration : 1 h 53 min

  52. Bit rate : 96.0 kb/s

  53. Channel(s) : 2 channels

  54. Channel layout : L R

  55. Sampling rate : 48.0 kHz

  56. Frame rate : 46.875 FPS (1024 SPF)

  57. Compression mode : Lossy

  58. Stream size : 78.1 MiB (2%)

  59. Title : Commentary with Mike Leeder + Arne Venema

  60. Language : English

  61. Default : No

  62. Forced : No


  63. Text #1

  64. ID : 4

  65. Format : PGS

  66. Muxing mode : zlib

  67. Codec ID : S_HDMV/PGS

  68. Codec ID/Info : Picture based subtitle format used on BDs/HD-DVDs

  69. Duration : 1 h 48 min

  70. Bit rate : 47.2 kb/s

  71. Count of elements : 2470

  72. Stream size : 36.7 MiB (1%)

  73. Language : English

  74. Default : No

  75. Forced : No


  76. Text #2

  77. ID : 5

  78. Format : UTF-8

  79. Codec ID : S_TEXT/UTF8

  80. Codec ID/Info : UTF-8 Plain Text

  81. Duration : 1 h 48 min

  82. Bit rate : 57 b/s

  83. Count of elements : 1235

  84. Stream size : 45.8 KiB (0%)

  85. Language : English

  86. Default : Yes

  87. Forced : Yes


  88. Menu

  89. 00:00:00.000 : :Chapter 01

  90. 00:02:06.376 : :Chapter 02

  91. 00:07:53.765 : :Chapter 03

  92. 00:14:49.931 : :Chapter 04

  93. 00:22:20.756 : :Chapter 05

  94. 00:27:13.465 : :Chapter 06

  95. 00:34:44.499 : :Chapter 07

  96. 00:43:29.357 : :Chapter 08

  97. 00:49:06.902 : :Chapter 09

  98. 00:56:39.187 : :Chapter 10

  99. 01:03:39.065 : :Chapter 11

  100. 01:10:53.958 : :Chapter 12

  101. 01:21:01.982 : :Chapter 13

  102. 01:27:12.185 : :Chapter 14

  103. 01:34:56.733 : :Chapter 15

  104. 01:45:35.579 : :Chapter 16

复制代码

铁旗门[国语音轨].The.Flag.of.Iron.1980.720p.BluRay.x264 CiNEPHiLiA 3.79GB 武侠 动作 剧情 港台电影  第2张



文件下载


除非特别注明,本文『铁旗门[国语音轨].The.Flag.of.Iron.1980.720p.BluRay.x264-CiNEPHiLiA 3.79GB』来源于互联网机器人自动抓取,非本站原创。 浮游电影网不对本文拥有版权,如有侵犯,请联系邮箱:fuyouu#yandex.com[#换成@]投诉。我们会在15个工作日内删除。 但烦请转载时请标明出处:“本文转载于『浮游电影网』,原文地址:https://www.fuyouu.com/21173.html

评论吧骚年!

发表你的见解   

昵称*

E-mail*(建议输入,以便收到博主回复的提示邮件)

验证码*

您可以使用eMule或eMule Mod(Windows)、aMule(Win、Linux、Mac)等软件下载eD2k链接。。
eMule收藏集(.emulecollection)文件是您选中的所有链接的列表文件。eMule可以直接下载它们。
按住SHIFT键选择可以选中多个选择框。
可用文件名和大小选择器来选择文件。
文件名选择器帮您根据文件名称或后缀来选择文件。不分大小写。
符号使用:
和:空格( )、+
不包含:-
或:|
转义:一对英文引号("");
匹配开头:^
匹配结尾:$
例如:
选中所有名称中包含有“eMule”或“0.49c”字眼,但不包含有“exe”字眼的:emule|0.49c -exe
选中所有名称的开头是“eMule”,结尾是“0.49c”的:^emule 0.49c$
选中所有名称中带有“eMule 0.49c”的(必须是“eMule 0.49c”,中间没有别的字符,不能是“eMule fake 0.49c”),需要转义:"emule 0.49c"
大小选择器帮您根据文件大小选择文件。