当前位置: 首页 >> 欧美电影 >> 烽火赤焰万里情[中英字幕].Reds.1981.BluRay.1080p.TrueHD.5.1.x264-OPT 23.46GB >> 正文

烽火赤焰万里情[中英字幕].Reds.1981.BluRay.1080p.TrueHD.5.1.x264-OPT 23.46GB

2022年04月06日 23:16:19     电影发布:来源于网络     电影分类:欧美电影     评论(0)    

烽火赤焰万里情[中英字幕].Reds.1981.BluRay.1080p.TrueHD.5.1.x264 OPT 23.46GB 历史 传记 爱情 剧情 欧美电影  第1张

◎译 名 烽火赤焰万里情 / 乱世情天(港) / 烽火赤焰万里情(台) / 赤色分子

◎片 名 Reds

◎年 代 1981

◎产 地 美国 / 英国

◎类 别 剧情 / 爱情 / 传记 / 历史

◎语 言 英语 / 俄语 / 德语 / 法语 / 芬兰语 / 意大利语

◎上映日期 1981-12-03(美国)

◎IMDb链接 https://www.imdb.com/title/tt0082979/

◎豆瓣评分 8.0/10 (1554人评价)

◎豆瓣链接 https://movie.douban.com/subject/1292891/

◎片 长 195分钟

◎导 演 沃伦·比蒂 Warren Beatty (id:1002722)

◎编 剧 沃伦·比蒂 Warren Beatty (id:1002722)

特雷弗·格里菲思 Trevor Griffiths (id:1001605)

杰瑞米·皮克瑟 Jeremy Pikser (id:1294532)

◎演 员 沃伦·比蒂 Warren Beatty (id:1002722)

黛安·基顿 Diane Keaton (id:1053568)

杰克·尼科尔森 Jack Nicholson (id:1054528)

爱德华·赫曼 Edward Herrmann (id:1010634)

玛伦·斯塔普莱顿 Maureen Stapleton (id:1018119)

吉恩·哈克曼 Gene Hackman (id:1004589)

布伦达·柯林 Brenda Currin (id:1432969)

史蒂芬·桑德海姆 Stephen Sondheim (id:1000531)

维托里奥·斯托拉罗 Vittorio Storaro (id:1009683)

克雷格·麦凯 Craig McKay (id:1291636)

Barry Richardson Barry Richardson (id:1312522)

费恩·巴奇纳 Fern Buchner (id:1279549)

Enrique Gabriel Enrique Gabriel (id:1284371)

Robert Birnbaum Robert Birnbaum (id:1278679)

◎简 介

二十年代初期,响往共产主义的美国名记者约翰·雷德千方百计跑到十月革命之后的苏俄体验生活,追求理想的政治国度,并写出了轰动世界的报导文学《震动世界的十天》。然而,他最后对共产主义彻底失望,重回自由世界。

电影摘要: 第一幕:雷德和露易丝·布莱恩特在波特兰相遇。 第二幕:20世纪10年代在格林威治村的知识分子生活。雷德和露易丝被尤金·奥尼尔和艾玛·高曼等思想家吸引。 第三幕:雷德和露易丝接受俄国革命的影响。 第四幕:雷德试图在美国建立共产党。 第五幕:雷德来到俄国接受布尔什维克的帮助宣传社会主义。1920年雷德去世,年仅32岁。 五个部分充满了乱糟糟的争吵,换句话说,这很难让你对这段历史激起足够的兴趣。在第一部分,观众必须容忍长时间谄媚性的诱导。在这之后,则是雷德和露易丝一段奇怪的爱情:当他们彼此凝视,伴随着革命的高潮和八十年庸俗...

◎获奖情况 (共12项)

第54届奥斯卡金像奖 (1982)

最佳影片(提名)

└──沃伦·比蒂 (id:1002722)

最佳导演

└──沃伦·比蒂 (id:1002722)

最佳男主角(提名)

└──沃伦·比蒂 (id:1002722)

最佳女主角(提名)

└──黛安·基顿 (id:1053568)

最佳男配角(提名)

└──杰克·尼科尔森 (id:1054528)

最佳女配角

└──玛伦·斯塔普莱顿 (id:1018119)

最佳原创剧本(提名)

最佳摄影

└──维托里奥·斯托拉罗 (id:1009683)

最佳剪辑(提名)

最佳音响(提名)

最佳艺术指导(提名)

最佳服装设计(提名)

└──雪莉·拉塞尔 (id:1033652)

  1. ##### MediaInfo ######

  2. General

  3. Unique ID : 324661824633793255797055176785770564290 (0xF43F97CDF0ECC15556B9FA28D067CAC2)

  4. Complete name : Reds.1981.BluRay.1080p.TrueHD.5.1.x264-HDH.mkv

  5. Format : Matroska

  6. Format version : Version 4

  7. File size : 23.5 GiB

  8. Duration : 3 h 15 min

  9. Overall bit rate mode : Variable

  10. Overall bit rate : 17.2 Mb/s

  11. Movie name : Reds

  12. Encoded date : UTC 2022-04-06 00:23:57

  13. Writing application : mkvmerge v59.0.0 ('Shining Star') 64-bit

  14. Writing library : libebml v1.4.2 + libmatroska v1.6.4

  15. Cover : Yes

  16. Attachments : Cover.jpg

  17. Video

  18. ID : 1

  19. Format : AVC

  20. Format/Info : Advanced Video Codec

  21. Format profile : [email protected]

  22. Format settings : CABAC / 4 Ref Frames

  23. Format settings, CABAC : Yes

  24. Format settings, Reference frames : 4 frames

  25. Codec ID : V_MPEG4/ISO/AVC

  26. Duration : 3 h 15 min

  27. Bit rate : 13.4 Mb/s

  28. Width : 1 920 pixels

  29. Height : 1 040 pixels

  30. Display aspect ratio : 1.85:1

  31. Frame rate mode : Constant

  32. Frame rate : 23.976 (24000/1001/53354) FPS

  33. Color space : YUV

  34. Chroma subsampling : 4:2:0

  35. Bit depth : 8 bits

  36. Scan type : Progressive

  37. Bits/(Pixel*Frame) : 0.280

  38. Stream size : 18.3 GiB (78%)

  39. Writing library : x264 core 142 r2431+42 c69a006 tMod [[email protected]:2:0 X86_64]

  40. Encoding settings : cabac=1 / ref=4 / deblock=1:-3:-3 / analyse=0x3:0x113 / me=umh / subme=10 / psy=1 / fade_compensate=0.00 / psy_rd=1.00:0.05 / mixed_ref=1 / me_range=48 / chroma_me=1 / trellis=2 / 8x8dct=1 / cqm=0 / deadzone=21,11 / fast_pskip=0 / chroma_qp_offset=-2 / threads=72 / lookahead_threads=8 / sliced_threads=0 / nr=0 / decimate=1 / interlaced=0 / NTMzNTQ= / bluray_compat=0 / constrained_intra=0 / fgo=0 / bframes=8 / b_pyramid=2 / b_adapt=2 / b_bias=0 / direct=3 / weightb=1 / open_gop=0 / weightp=2 / keyint=250 / keyint_min=23 / NTMzNTQ=uuDQuD2mJt9fsCf / scenecut=40 / intra_refresh=0 / rc_lookahead=40 / rc=crf / mbtree=0 / crf=20.8000 / qcomp=0.60 / qpmin=0:0:0 / qpmax=69:69:69 / qpstep=4 / vbv_maxrate=40000 / vbv_bufsize=30000 / crf_max=0.0 / nal_hrd=none / filler=0 / NTMzNTQ=LmsMAP37EqsCpk / ip_ratio=1.40 / pb_ratio=1.30 / aq=3:0.80 / aq-sensitivity=10.00 / aq-factor=1.00:1.00:1.00 / aq2=0 / aq3=0

  41. Default : Yes

  42. Forced : No

  43. Color range : Limited

  44. Matrix coefficients : BT.709

  45. Audio #1

  46. ID : 2

  47. Format : MLP FBA

  48. Format/Info : Meridian Lossless Packing FBA

  49. Commercial name : Dolby TrueHD

  50. Codec ID : A_TRUEHD

  51. Duration : 3 h 15 min

  52. Bit rate mode : Variable

  53. Bit rate : 2 361 kb/s

  54. Maximum bit rate : 4 176 kb/s

  55. Channel(s) : 6 channels

  56. Channel layout : L R C LFE Ls Rs

  57. Sampling rate : 48.0 kHz

  58. Frame rate : 1 200.000 FPS (40 SPF)

  59. Compression mode : Lossless

  60. Stream size : 3.22 GiB (14%)

  61. Language : English

  62. Default : Yes

  63. Forced : No

  64. Audio #2

  65. ID : 3

  66. Format : AC-3

  67. Format/Info : Audio Coding 3

  68. Commercial name : Dolby Digital

  69. Codec ID : A_AC3

  70. Duration : 3 h 15 min

  71. Bit rate mode : Constant

  72. Bit rate : 640 kb/s

  73. Channel(s) : 6 channels

  74. Channel layout : L R C LFE Ls Rs

  75. Sampling rate : 48.0 kHz

  76. Frame rate : 31.250 FPS (1536 SPF)

  77. Compression mode : Lossy

  78. Stream size : 894 MiB (4%)

  79. Language : English

  80. Service kind : Complete Main

  81. Default : Yes

  82. Forced : No

  83. Audio #3

  84. ID : 4

  85. Format : AC-3

  86. Format/Info : Audio Coding 3

  87. Commercial name : Dolby Digital

  88. Codec ID : A_AC3

  89. Duration : 3 h 15 min

  90. Bit rate mode : Constant

  91. Bit rate : 640 kb/s

  92. Channel(s) : 6 channels

  93. Channel layout : L R C LFE Ls Rs

  94. Sampling rate : 48.0 kHz

  95. Frame rate : 31.250 FPS (1536 SPF)

  96. Compression mode : Lossy

  97. Stream size : 894 MiB (4%)

  98. Language : English

  99. Service kind : Complete Main

  100. Default : Yes

  101. Forced : No

  102. Text #1

  103. ID : 5

  104. Format : PGS

  105. Muxing mode : zlib

  106. Codec ID : S_HDMV/PGS

  107. Codec ID/Info : Picture based subtitle format used on BDs/HD-DVDs

  108. Duration : 3 h 13 min

  109. Bit rate : 51.2 kb/s

  110. Count of elements : 5964

  111. Stream size : 70.7 MiB (0%)

  112. Language : English

  113. Default : Yes

  114. Forced : No

  115. Text #2

  116. ID : 6

  117. Format : PGS

  118. Muxing mode : zlib

  119. Codec ID : S_HDMV/PGS

  120. Codec ID/Info : Picture based subtitle format used on BDs/HD-DVDs

  121. Duration : 3 h 13 min

  122. Bit rate : 54.9 kb/s

  123. Count of elements : 6424

  124. Stream size : 75.8 MiB (0%)

  125. Language : English

  126. Default : Yes

  127. Forced : No

  128. Text #3

  129. ID : 7

  130. Format : PGS

  131. Muxing mode : zlib

  132. Codec ID : S_HDMV/PGS

  133. Codec ID/Info : Picture based subtitle format used on BDs/HD-DVDs

  134. Duration : 3 h 15 min

  135. Bit rate : 44.5 kb/s

  136. Count of elements : 5808

  137. Stream size : 62.2 MiB (0%)

  138. Title : 简体中字

  139. Language : Chinese

  140. Default : Yes

  141. Forced : No

  142. Text #4

  143. ID : 8

  144. Format : PGS

  145. Muxing mode : zlib

  146. Codec ID : S_HDMV/PGS

  147. Codec ID/Info : Picture based subtitle format used on BDs/HD-DVDs

  148. Duration : 3 h 15 min

  149. Bit rate : 45.7 kb/s

  150. Count of elements : 5808

  151. Stream size : 63.8 MiB (0%)

  152. Title : 繁体中字

  153. Language : Chinese

  154. Default : Yes

  155. Forced : No

  156. Text #5

  157. ID : 9

  158. Format : UTF-8

  159. Codec ID : S_TEXT/UTF8

  160. Codec ID/Info : UTF-8 Plain Text

  161. Duration : 3 h 15 min

  162. Bit rate : 62 b/s

  163. Count of elements : 2923

  164. Stream size : 89.9 KiB (0%)

  165. Title : 简体中字

  166. Language : Chinese

  167. Default : Yes

  168. Forced : No

  169. Text #6

  170. ID : 10

  171. Format : UTF-8

  172. Codec ID : S_TEXT/UTF8

  173. Codec ID/Info : UTF-8 Plain Text

  174. Duration : 3 h 15 min

  175. Bit rate : 62 b/s

  176. Count of elements : 2923

  177. Stream size : 89.9 KiB (0%)

  178. Title : 繁体中字

  179. Language : Chinese

  180. Default : Yes

  181. Forced : No

  182. Menu

  183. 00:00:00.000 : :第 01 章

  184. 00:05:24.282 : :第 02 章

  185. 00:18:27.231 : :第 03 章

  186. 00:30:37.335 : :第 04 章

  187. 00:39:47.468 : :第 05 章

  188. 01:03:23.967 : :第 06 章

  189. 01:09:52.688 : :第 07 章

  190. 01:19:58.293 : :第 08 章

  191. 01:29:36.121 : :第 09 章

  192. 01:36:05.969 : :第 10 章

  193. 01:43:56.647 : :第 11 章

  194. 01:54:32.282 : :第 12 章

  195. 02:07:05.076 : :第 13 章

  196. 02:16:50.327 : :第 14 章

  197. 02:24:57.814 : :第 15 章

  198. 02:42:18.270 : :第 16 章

  199. 02:49:43.507 : :第 17 章

  200. 03:00:40.997 : :第 18 章

  201. 03:11:58.632 : :第 19 章


文件下载


除非特别注明,本文『烽火赤焰万里情[中英字幕].Reds.1981.BluRay.1080p.TrueHD.5.1.x264-OPT 23.46GB』来源于互联网机器人自动抓取,非本站原创。 浮游电影网不对本文拥有版权,如有侵犯,请联系邮箱:fuyouu#yandex.com[#换成@]投诉。我们会在15个工作日内删除。 但烦请转载时请标明出处:“本文转载于『浮游电影网』,原文地址:https://www.fuyouu.com/21172.html

评论吧骚年!

发表你的见解   

昵称*

E-mail*(建议输入,以便收到博主回复的提示邮件)

验证码*

您可以使用eMule或eMule Mod(Windows)、aMule(Win、Linux、Mac)等软件下载eD2k链接。。
eMule收藏集(.emulecollection)文件是您选中的所有链接的列表文件。eMule可以直接下载它们。
按住SHIFT键选择可以选中多个选择框。
可用文件名和大小选择器来选择文件。
文件名选择器帮您根据文件名称或后缀来选择文件。不分大小写。
符号使用:
和:空格( )、+
不包含:-
或:|
转义:一对英文引号("");
匹配开头:^
匹配结尾:$
例如:
选中所有名称中包含有“eMule”或“0.49c”字眼,但不包含有“exe”字眼的:emule|0.49c -exe
选中所有名称的开头是“eMule”,结尾是“0.49c”的:^emule 0.49c$
选中所有名称中带有“eMule 0.49c”的(必须是“eMule 0.49c”,中间没有别的字符,不能是“eMule fake 0.49c”),需要转义:"emule 0.49c"
大小选择器帮您根据文件大小选择文件。