当前位置: 首页 >> 国产电影 >> 破局[国语音轨/中英字幕].Peace.Breaker.2017.1080p.BluRay.TrueHD.5.1.x264-OPT 15.58GB >> 正文

破局[国语音轨/中英字幕].Peace.Breaker.2017.1080p.BluRay.TrueHD.5.1.x264-OPT 15.58GB

2022年04月06日 23:15:18     电影发布:来源于网络     电影分类:国产电影     评论(0)    

破局[国语音轨/中英字幕].Peace.Breaker.2017.1080p.BluRay.TrueHD.5.1.x264 OPT 15.58GB 犯罪 动作 国产电影  第1张

◎译 名 破·局 / 肇事者 / 走到尽头 / Peace Breaker

◎年 代 2017

◎产 地 中国大陆

◎类 别 动作 / 犯罪

◎语 言 汉语普通话

◎上映日期 2017-08-17(中国大陆)

◎IMDb链接 https://www.imdb.com/title/tt7180392/

◎豆瓣评分 6.1/10 (67099人评价)

◎豆瓣链接 https://movie.douban.com/subject/26760160/

◎片 长 112分钟

◎导 演 连奕琦 Yi-chi Lien (id:1316302)

◎编 剧 林宇辰 Yu-Chen Lin (id:1406909)

于尚民 Johnny Yu (id:1315742)

金成勋 Seong-hoon Kim (id:1341016)

◎演 员 郭富城 Aaron Kwok (id:1041390)

王千源 Qianyuan Wang (id:1314827)

刘涛 Tao Liu (id:1011562)

余皑磊 Ailei Yu (id:1313809)

冯嘉怡 Jiayi Feng (id:1317068)

郑凯 Kai Zheng (id:1316093)

吴中天 Matt Wu (id:1313736)

覃宏 Hong Qin (id:1275502)

董宸辰 Chenchen Dong (id:1419013)

张剑 Amber Zhang (id:1408609)

李栋全 Wenders Li (id:1275162)

◎简 介

这是高见翔警官生命中最艰难的一天:母亲去世,工作遇阻,还在奔丧时意外撞死了一个人。他本以为可以瞒天过海,没想到一个惊天阴谋在前方等待,令他身陷迷局......

  1. ##### MediaInfo ######

  2. General

  3. Unique ID : 147544138485773302759844592647291506621 (0x6EFFF7AA55C6B4A9ECAB0F3CC8F38FBD)

  4. Complete name : Peace.Breaker.2017.1080p.BluRay.TrueHD.5.1.x264-HDH.mkv

  5. Format : Matroska

  6. Format version : Version 4

  7. File size : 15.6 GiB

  8. Duration : 1 h 52 min

  9. Overall bit rate mode : Variable

  10. Overall bit rate : 19.9 Mb/s

  11. Encoded date : UTC 2018-03-27 23:06:22

  12. Writing application : mkvmerge v20.0.0 ('I Am The Sun') 64-bit

  13. Writing library : libebml v1.3.5 + libmatroska v1.4.8

  14. Video

  15. ID : 1

  16. Format : AVC

  17. Format/Info : Advanced Video Codec

  18. Format profile : [email protected]

  19. Format settings : CABAC / 5 Ref Frames

  20. Format settings, CABAC : Yes

  21. Format settings, Reference frames : 5 frames

  22. Codec ID : V_MPEG4/ISO/AVC

  23. Duration : 1 h 52 min

  24. Bit rate : 11.5 Mb/s

  25. Width : 1 920 pixels

  26. Height : 804 pixels

  27. Display aspect ratio : 2.40:1

  28. Frame rate mode : Constant

  29. Frame rate : 24.000 FPS

  30. Color space : YUV

  31. Chroma subsampling : 4:2:0

  32. Bit depth : 8 bits

  33. Scan type : Progressive

  34. Bits/(Pixel*Frame) : 0.312

  35. Stream size : 9.05 GiB (58%)

  36. Writing library : x264 core 142 r2431+42 c69a006 tMod [[email protected]:2:0 X86_64]

  37. Encoding settings : cabac=1 / ref=5 / deblock=1:-3:-3 / analyse=0x3:0x113 / me=umh / subme=10 / psy=1 / fade_compensate=0.00 / psy_rd=1.00:0.05 / mixed_ref=1 / me_range=48 / chroma_me=1 / trellis=2 / 8x8dct=1 / cqm=0 / deadzone=21,11 / fast_pskip=0 / chroma_qp_offset=-2 / threads=48 / lookahead_threads=6 / sliced_threads=0 / nr=0 / decimate=1 / interlaced=0 / NTMzNTQ= / bluray_compat=0 / constrained_intra=0 / fgo=0 / bframes=8 / b_pyramid=2 / b_adapt=2 / b_bias=0 / direct=3 / weightb=1 / open_gop=0 / weightp=2 / keyint=250 / keyint_min=24 / NTMzNTQ=uuDQuD2mJt9fsCf / scenecut=40 / intra_refresh=0 / rc_lookahead=40 / rc=crf / mbtree=0 / crf=17.6000 / qcomp=0.60 / qpmin=0:0:0 / qpmax=69:69:69 / qpstep=4 / vbv_maxrate=40000 / vbv_bufsize=30000 / crf_max=0.0 / nal_hrd=none / filler=0 / NTMzNTQ=LmsMAP37EqsCpk / ip_ratio=1.40 / pb_ratio=1.30 / aq=3:0.80 / aq-sensitivity=10.00 / aq-factor=1.00:1.00:1.00 / aq2=0 / aq3=0

  38. Default : Yes

  39. Forced : No

  40. Color range : Limited

  41. Matrix coefficients : BT.709

  42. Audio #1

  43. ID : 2

  44. Format : MLP FBA

  45. Format/Info : Meridian Lossless Packing FBA

  46. Commercial name : Dolby TrueHD

  47. Codec ID : A_TRUEHD

  48. Duration : 1 h 52 min

  49. Bit rate mode : Variable

  50. Bit rate : 2 799 kb/s

  51. Maximum bit rate : 4 746 kb/s

  52. Channel(s) : 6 channels

  53. Channel layout : L R C LFE Ls Rs

  54. Sampling rate : 96.0 kHz

  55. Frame rate : 1 200.000 FPS (80 SPF)

  56. Compression mode : Lossless

  57. Delay relative to video : 2 s 0 ms

  58. Stream size : 2.19 GiB (14%)

  59. Language : Chinese

  60. Default : Yes

  61. Forced : No

  62. Audio #2

  63. ID : 3

  64. Format : AC-3

  65. Format/Info : Audio Coding 3

  66. Commercial name : Dolby Digital

  67. Codec ID : A_AC3

  68. Duration : 1 h 52 min

  69. Bit rate mode : Constant

  70. Bit rate : 640 kb/s

  71. Channel(s) : 6 channels

  72. Channel layout : L R C LFE Ls Rs

  73. Sampling rate : 48.0 kHz

  74. Frame rate : 31.250 FPS (1536 SPF)

  75. Compression mode : Lossy

  76. Delay relative to video : 2 s 0 ms

  77. Stream size : 513 MiB (3%)

  78. Language : Chinese

  79. Service kind : Complete Main

  80. Default : No

  81. Forced : No

  82. Audio #3

  83. ID : 4

  84. Format : AC-3

  85. Format/Info : Audio Coding 3

  86. Commercial name : Dolby Digital

  87. Codec ID : A_AC3

  88. Duration : 1 h 52 min

  89. Bit rate mode : Constant

  90. Bit rate : 640 kb/s

  91. Channel(s) : 6 channels

  92. Channel layout : L R C LFE Ls Rs

  93. Sampling rate : 48.0 kHz

  94. Frame rate : 31.250 FPS (1536 SPF)

  95. Compression mode : Lossy

  96. Stream size : 513 MiB (3%)

  97. Language : Chinese

  98. Service kind : Complete Main

  99. Default : No

  100. Forced : No

  101. Audio #4

  102. ID : 5

  103. Format : MLP FBA

  104. Format/Info : Meridian Lossless Packing FBA

  105. Commercial name : Dolby TrueHD

  106. Codec ID : A_TRUEHD

  107. Duration : 1 h 52 min

  108. Bit rate mode : Variable

  109. Bit rate : 2 812 kb/s

  110. Maximum bit rate : 4 746 kb/s

  111. Channel(s) : 6 channels

  112. Channel layout : L R C LFE Ls Rs

  113. Sampling rate : 96.0 kHz

  114. Frame rate : 1 200.000 FPS (80 SPF)

  115. Compression mode : Lossless

  116. Delay relative to video : 2 s 0 ms

  117. Stream size : 2.20 GiB (14%)

  118. Language : Chinese

  119. Default : No

  120. Forced : No

  121. Audio #5

  122. ID : 6

  123. Format : AC-3

  124. Format/Info : Audio Coding 3

  125. Commercial name : Dolby Digital

  126. Codec ID : A_AC3

  127. Duration : 1 h 52 min

  128. Bit rate mode : Constant

  129. Bit rate : 640 kb/s

  130. Channel(s) : 6 channels

  131. Channel layout : L R C LFE Ls Rs

  132. Sampling rate : 48.0 kHz

  133. Frame rate : 31.250 FPS (1536 SPF)

  134. Compression mode : Lossy

  135. Delay relative to video : 2 s 0 ms

  136. Stream size : 513 MiB (3%)

  137. Language : Chinese

  138. Service kind : Complete Main

  139. Default : No

  140. Forced : No

  141. Audio #6

  142. ID : 7

  143. Format : AC-3

  144. Format/Info : Audio Coding 3

  145. Commercial name : Dolby Digital

  146. Codec ID : A_AC3

  147. Duration : 1 h 52 min

  148. Bit rate mode : Constant

  149. Bit rate : 640 kb/s

  150. Channel(s) : 6 channels

  151. Channel layout : L R C LFE Ls Rs

  152. Sampling rate : 48.0 kHz

  153. Frame rate : 31.250 FPS (1536 SPF)

  154. Compression mode : Lossy

  155. Stream size : 513 MiB (3%)

  156. Language : Chinese

  157. Service kind : Complete Main

  158. Default : No

  159. Forced : No

  160. Text #1

  161. ID : 8

  162. Format : PGS

  163. Muxing mode : zlib

  164. Codec ID : S_HDMV/PGS

  165. Codec ID/Info : Picture based subtitle format used on BDs/HD-DVDs

  166. Duration : 1 h 43 min

  167. Bit rate : 21.3 kb/s

  168. Count of elements : 2412

  169. Stream size : 15.7 MiB (0%)

  170. Language : Chinese

  171. Default : Yes

  172. Forced : No

  173. Text #2

  174. ID : 9

  175. Format : PGS

  176. Muxing mode : zlib

  177. Codec ID : S_HDMV/PGS

  178. Codec ID/Info : Picture based subtitle format used on BDs/HD-DVDs

  179. Duration : 1 h 43 min

  180. Bit rate : 19.8 kb/s

  181. Count of elements : 2412

  182. Stream size : 14.6 MiB (0%)

  183. Language : Chinese

  184. Default : No

  185. Forced : No

  186. Text #3

  187. ID : 10

  188. Format : PGS

  189. Muxing mode : zlib

  190. Codec ID : S_HDMV/PGS

  191. Codec ID/Info : Picture based subtitle format used on BDs/HD-DVDs

  192. Duration : 1 h 43 min

  193. Bit rate : 24.5 kb/s

  194. Count of elements : 2412

  195. Stream size : 18.1 MiB (0%)

  196. Language : English

  197. Default : No

  198. Forced : No

  199. Menu

  200. 00:00:00.000 : en:00:00:00.000

  201. 00:07:15.375 : en:00:07:15.375

  202. 00:12:23.667 : en:00:12:23.667

  203. 00:16:15.875 : en:00:16:15.875

  204. 00:22:04.292 : en:00:22:04.292

  205. 00:29:07.000 : en:00:29:07.000

  206. 00:35:41.167 : en:00:35:41.167

  207. 00:40:49.500 : en:00:40:49.500

  208. 00:47:08.542 : en:00:47:08.542

  209. 00:51:09.792 : en:00:51:09.792

  210. 00:56:07.125 : en:00:56:07.125

  211. 01:02:03.958 : en:01:02:03.958

  212. 01:06:05.167 : en:01:06:05.167

  213. 01:14:46.958 : en:01:14:46.958

  214. 01:17:27.000 : en:01:17:27.000

  215. 01:23:00.417 : en:01:23:00.417

  216. 01:26:34.583 : en:01:26:34.583

  217. 01:31:26.583 : en:01:31:26.583

  218. 01:38:42.375 : en:01:38:42.375

  219. 01:45:17.333 : en:01:45:17.333


复制代码



文件下载


除非特别注明,本文『破局[国语音轨/中英字幕].Peace.Breaker.2017.1080p.BluRay.TrueHD.5.1.x264-OPT 15.58GB』来源于互联网机器人自动抓取,非本站原创。 浮游电影网不对本文拥有版权,如有侵犯,请联系邮箱:fuyouu#yandex.com[#换成@]投诉。我们会在15个工作日内删除。 但烦请转载时请标明出处:“本文转载于『浮游电影网』,原文地址:https://www.fuyouu.com/21171.html

评论吧骚年!

发表你的见解   

昵称*

E-mail*(建议输入,以便收到博主回复的提示邮件)

验证码*

您可以使用eMule或eMule Mod(Windows)、aMule(Win、Linux、Mac)等软件下载eD2k链接。。
eMule收藏集(.emulecollection)文件是您选中的所有链接的列表文件。eMule可以直接下载它们。
按住SHIFT键选择可以选中多个选择框。
可用文件名和大小选择器来选择文件。
文件名选择器帮您根据文件名称或后缀来选择文件。不分大小写。
符号使用:
和:空格( )、+
不包含:-
或:|
转义:一对英文引号("");
匹配开头:^
匹配结尾:$
例如:
选中所有名称中包含有“eMule”或“0.49c”字眼,但不包含有“exe”字眼的:emule|0.49c -exe
选中所有名称的开头是“eMule”,结尾是“0.49c”的:^emule 0.49c$
选中所有名称中带有“eMule 0.49c”的(必须是“eMule 0.49c”,中间没有别的字符,不能是“eMule fake 0.49c”),需要转义:"emule 0.49c"
大小选择器帮您根据文件大小选择文件。