当前位置: 首页 >> 欧美电影 >> 马格瑞姆的神奇玩具店[中英字幕].Mr.Magorium's.Wonder.Emporium.2007.1080p.BluRay.DTS-HD.MA.5.1.x264-OPT 11.28GB >> 正文

马格瑞姆的神奇玩具店[中英字幕].Mr.Magorium's.Wonder.Emporium.2007.1080p.BluRay.DTS-HD.MA.5.1.x264-OPT 11.28GB

2022年04月06日 23:12:48     电影发布:来源于网络     电影分类:欧美电影     评论(0)    

马格瑞姆的神奇玩具店[中英字幕].Mr.Magoriums.Wonder.Emporium.2007.1080p.BluRay.DTS HD.MA.5.1.x264 OPT 11.28GB 奇幻 喜剧 欧美电影  第1张

◎译 名 马格瑞姆的神奇玩具店 / 马格瑞姆的玩具店 / 神奇玩具店 / 魔法玩具城 / 玩具掌门人

◎片 名 Mr. Magorium's Wonder Emporium

◎年 代 2007

◎产 地 美国

◎类 别 喜剧 / 家庭 / 奇幻

◎语 言 英语

◎上映日期 2007-11-16(美国)

◎IMDb链接 https://www.imdb.com/title/tt0457419/

◎豆瓣评分 7.0/10 (15409人评价)

◎豆瓣链接 https://movie.douban.com/subject/1783461/

◎片 长 93 分钟

◎导 演 扎克·海尔姆 Zach Helm (id:1004919)

◎编 剧 扎克·海尔姆 Zach Helm (id:1004919)

◎演 员 娜塔莉·波特曼 Natalie Portman (id:1054454)

达斯汀·霍夫曼 Dustin Hoffman (id:1054427)

泰德·路德齐克 Ted Ludzik (id:1032616)

扎奇·米尔斯 Zach Mills (id:1014150)

迈克·瑞巴 Mike Realba (id:1215730)

史蒂夫·惠特迈尔 Steve Whitmire (id:1164036)

杰森·贝特曼 Jason Bateman (id:1013760)

约旦·迪恩·斯科特 Jordan Dean Scott (id:1256578)

大卫·柯林斯 David Collins (id:1011232)

基拉·桑切斯 Kiele Sanchez (id:1027256)

马克西米连·劳 Maximilian Law (id:1045699)

大卫·伦德尔 David Rendall (id:1198570)

亨里克·科福特 Henrik Koefoed (id:1103060)

约瑟夫·德雷克 Joseph Drake (id:1282700)

理查德·N·格莱德斯坦 Richard N. Gladstein (id:1018685)

内森·卡亨 Nathan Kahane (id:1303955)

Jim Miller Jim Miller (id:1185421)

亚伦·齐格曼 Aaron Zigman (id:1301741)

亚历山大·德斯普拉 Alexandre Desplat (id:1049972)

Roman Osin Roman Osin (id:1293686)

Sabrina Plisco Sabrina Plisco (id:1294620)

凯茜·桑德里奇 Cathy Sandrich (id:1296638)

罗宾·D·库克 Robin D. Cook (id:1281195)

Amanda Mackey Johnson Amanda Mackey Johnson (id:1290650)

特蕾莎·德普雷 Thérèse DePrez (id:1282260)

布兰特·戈登 Brandt Gordon (id:1285177)

克里斯托弗·哈格顿 Christopher Hargadon (id:1286042)

Jennifer Bower O'Halloran Jennifer Bower O'Halloran (id:1293355)

乔丹·萨缪尔 Jordan Samuel (id:1296587)

瓦利·奥雷利 Valli O'Reilly (id:1293436)

肖恩·康拉德 Sean Konrad (id:1203962)

Glenn Neufeld Glenn Neufeld (id:1293068)

梅利莎·贝斯特 Melissa Best (id:1189596)

Paul Ens Paul Ens (id:1181797)

Manon Barriault Manon Barriault (id:1177053)

杰森·布斯 Jason Booth (id:1176425)

Marco Checa Garcia Marco Checa Garcia (id:1170382)

乔治·泰勒 George Taylor (id:1170370)

Mark Theriault Mark Theriault (id:1178657)

Ben Malter Ben Malter (id:1207144)

彼得·迈泽尔斯 Peter Muyzers (id:1292806)

Camille Cellucci Camille Cellucci (id:1280347)

Michel Frenette Michel Frenette (id:1284175)

Tricoire Sebastien (id:1253975)

Anuj Patil (id:1253665)

Ben Myers (id:1252838)

丹尼塔·斯劳格赫特尔 Danita Slaughter (id:1239865)

蒂姆·克里斯滕森 Tim Christensen (id:1227340)

Freddy Chavez Olmos (id:1221970)

Laura Bussinger Laura Bussinger (id:1215815)

马克·特拉斯科 Mark Tureski (id:1159309)

Borislav Petrov Borislav Petrov (id:1135919)

维克多·拉基索夫 Viktor Lakisov (id:1026699)

David Dozoretz David Dozoretz (id:1020473)

列夫·科洛博夫 Lev Kolobov (id:1020325)

凯文·托德·豪格 Kevin Tod Haug (id:1014807)

Dan Wheaton Dan Wheaton (id:1310282)

瓦尼斯·西蒙 Vanesse Simon (id:1310669)

Jeremy Mesana Jeremy Mesana (id:1312656)

Vladimir Leschinski Vladimir Leschinski (id:1008698)

迪克·费朗 Deak Ferrand (id:1283613)

Adam de Bosch Kemper Adam de Bosch Kemper (id:1307682)

Christophe Pacaud Christophe Pacaud (id:1305395)

Stefanie Boose Stefanie Boose (id:1305155)

洛恩·莫尔纳 Lon Molnar (id:1051865)

Alain Lalanne Alain Lalanne (id:1132135)

Sean Samuels Sean Samuels (id:1305394)

Chloe Grysole Chloe Grysole (id:1101381)

帕特里克·克兰斯 Patrick Clancey (id:1071903)

◎简 介

对外号称自己243岁的马格瑞姆(达斯汀·霍夫曼饰)先生,开了一家有200年历史神奇的玩具店,每件玩具都有自己的生命力,莫莉·马奥尼(娜塔丽·波特曼饰)是这家玩具店的经理,小时候的她因为能出色的弹奏“拉赫曼尼诺夫第二号钢琴协奏曲”而被认为是一个天才钢琴手,可是直到她22岁,却一直无法突破瓶颈,变的对自己自信心不足。老实刻板的会计师亨利·韦斯顿(杰森·贝特曼饰)被雇佣为玩具店做资产评估,和玩具店中一直交不到朋友的小伙计埃里克(扎奇·米尔斯饰)渐渐成为了朋友。

突然有一天,马格瑞姆宣布要离开,要将店交给莫莉,莫莉却不相信自己有这样的能力去经营这玩具店,而此时,一直明亮欢乐的玩具店也开始变的阴暗而丧失色彩,难道马格瑞姆的玩具店真的要从此消失吗?,朋友们要如何帮助莫莉建立自己的信心呢?

  1. ##### MediaInfo ######

  2. General

  3. Unique ID : 223630879841814683515614267120815926529 (0xA83DBDA4EB0CCC71AA5FDF8DA67B6D01)

  4. Complete name : Mr..Magorium's.Wonder.Emporium.2007.1080p.BluRay.DTS-HD.MA.5.1.x264-HDH.mkv

  5. Format : Matroska

  6. Format version : Version 4

  7. File size : 11.3 GiB

  8. Duration : 1 h 34 min

  9. Overall bit rate mode : Variable

  10. Overall bit rate : 17.1 Mb/s

  11. Encoded date : UTC 2019-07-08 16:49:57

  12. Writing application : mkvmerge v31.0.0 ('Dolores In A Shoestand') 64-bit

  13. Writing library : libebml v1.3.6 + libmatroska v1.4.9

  14. Video

  15. ID : 1

  16. Format : AVC

  17. Format/Info : Advanced Video Codec

  18. Format profile : [email protected]

  19. Format settings : CABAC / 5 Ref Frames

  20. Format settings, CABAC : Yes

  21. Format settings, Reference frames : 5 frames

  22. Codec ID : V_MPEG4/ISO/AVC

  23. Duration : 1 h 34 min

  24. Bit rate : 13.2 Mb/s

  25. Width : 1 920 pixels

  26. Height : 816 pixels

  27. Display aspect ratio : 2.35:1

  28. Frame rate mode : Constant

  29. Frame rate : 23.976 (24000/1001/53354) FPS

  30. Color space : YUV

  31. Chroma subsampling : 4:2:0

  32. Bit depth : 8 bits

  33. Scan type : Progressive

  34. Bits/(Pixel*Frame) : 0.351

  35. Stream size : 8.67 GiB (77%)

  36. Writing library : x264 core 142 r2431+42 c69a006 tMod [[email protected]:2:0 X86_64]

  37. Encoding settings : cabac=1 / ref=5 / deblock=1:-3:-3 / analyse=0x3:0x113 / me=umh / subme=10 / psy=1 / fade_compensate=0.00 / psy_rd=1.00:0.05 / mixed_ref=1 / me_range=48 / chroma_me=1 / trellis=2 / 8x8dct=1 / cqm=0 / deadzone=21,11 / fast_pskip=0 / chroma_qp_offset=-2 / threads=48 / lookahead_threads=6 / sliced_threads=0 / nr=0 / decimate=1 / interlaced=0 / NTMzNTQ= / bluray_compat=0 / constrained_intra=0 / fgo=0 / bframes=8 / b_pyramid=2 / b_adapt=2 / b_bias=0 / direct=3 / weightb=1 / open_gop=0 / weightp=2 / keyint=250 / keyint_min=23 / NTMzNTQ=uuDQuD2mJt9fsCf / scenecut=40 / intra_refresh=0 / rc_lookahead=40 / rc=crf / mbtree=0 / crf=18.3000 / qcomp=0.60 / qpmin=0:0:0 / qpmax=69:69:69 / qpstep=4 / vbv_maxrate=40000 / vbv_bufsize=30000 / crf_max=0.0 / nal_hrd=none / filler=0 / NTMzNTQ=LmsMAP37EqsCpk / ip_ratio=1.40 / pb_ratio=1.30 / aq=3:0.80 / aq-sensitivity=10.00 / aq-factor=1.00:1.00:1.00 / aq2=0 / aq3=0

  38. Default : Yes

  39. Forced : No

  40. Color range : Limited

  41. Matrix coefficients : BT.709

  42. Audio

  43. ID : 2

  44. Format : DTS XLL

  45. Format/Info : Digital Theater Systems

  46. Commercial name : DTS-HD Master Audio

  47. Codec ID : A_DTS

  48. Duration : 1 h 34 min

  49. Bit rate mode : Variable

  50. Bit rate : 3 883 kb/s

  51. Channel(s) : 6 channels

  52. Channel layout : C L R Ls Rs LFE

  53. Sampling rate : 48.0 kHz

  54. Frame rate : 93.750 FPS (512 SPF)

  55. Bit depth : 24 bits

  56. Compression mode : Lossless

  57. Stream size : 2.56 GiB (23%)

  58. Language : English

  59. Default : Yes

  60. Forced : No

  61. Text #1

  62. ID : 3

  63. Format : PGS

  64. Muxing mode : zlib

  65. Codec ID : S_HDMV/PGS

  66. Codec ID/Info : Picture based subtitle format used on BDs/HD-DVDs

  67. Duration : 1 h 34 min

  68. Bit rate : 63.7 kb/s

  69. Count of elements : 3655

  70. Stream size : 42.9 MiB (0%)

  71. Language : English

  72. Default : Yes

  73. Forced : No

  74. Text #2

  75. ID : 4

  76. Format : PGS

  77. Muxing mode : zlib

  78. Codec ID : S_HDMV/PGS

  79. Codec ID/Info : Picture based subtitle format used on BDs/HD-DVDs

  80. Duration : 1 h 32 min

  81. Bit rate : 27.8 kb/s

  82. Count of elements : 2745

  83. Stream size : 18.4 MiB (0%)

  84. Language : Chinese

  85. Default : No

  86. Forced : No

  87. Text #3

  88. ID : 5

  89. Format : PGS

  90. Muxing mode : zlib

  91. Codec ID : S_HDMV/PGS

  92. Codec ID/Info : Picture based subtitle format used on BDs/HD-DVDs

  93. Duration : 1 h 32 min

  94. Bit rate : 28.9 kb/s

  95. Count of elements : 2745

  96. Stream size : 19.1 MiB (0%)

  97. Language : Chinese

  98. Default : No

  99. Forced : No

  100. Menu

  101. 00:00:00.000 : :绗?01 绔?

  102. 00:03:17.447 : :绗?02 绔?

  103. 00:04:47.329 : :绗?03 绔?

  104. 00:08:12.492 : :绗?04 绔?

  105. 00:11:45.747 : :绗?05 绔?

  106. 00:15:34.058 : :绗?06 绔?

  107. 00:19:14.820 : :绗?07 绔?

  108. 00:22:46.198 : :绗?08 绔?

  109. 00:25:28.944 : :绗?09 绔?

  110. 00:30:21.695 : :绗?10 绔?

  111. 00:32:04.130 : :绗?11 绔?

  112. 00:36:07.582 : :绗?12 绔?

  113. 00:42:00.726 : :绗?13 绔?

  114. 00:45:24.430 : :绗?14 绔?

  115. 00:48:12.932 : :绗?15 绔?

  116. 00:52:56.590 : :绗?16 绔?

  117. 00:55:36.667 : :绗?17 绔?

  118. 00:59:21.433 : :绗?18 绔?

  119. 01:00:47.644 : :绗?19 绔?

  120. 01:03:10.870 : :绗?20 绔?

  121. 01:06:27.150 : :绗?21 绔?

  122. 01:11:19.108 : :绗?22 绔?

  123. 01:13:46.839 : :绗?23 绔?

  124. 01:15:28.691 : :绗?24 绔?

  125. 01:17:36.110 : :绗?25 绔?

  126. 01:19:14.416 : :绗?26 绔?

  127. 01:23:30.839 : :绗?27 绔?

  128. 01:28:27.302 : :绗?28 绔?


复制代码




文件下载


除非特别注明,本文『马格瑞姆的神奇玩具店[中英字幕].Mr.Magorium's.Wonder.Emporium.2007.1080p.BluRay.DTS-HD.MA.5.1.x264-OPT 11.28GB』来源于互联网机器人自动抓取,非本站原创。 浮游电影网不对本文拥有版权,如有侵犯,请联系邮箱:fuyouu#yandex.com[#换成@]投诉。我们会在15个工作日内删除。 但烦请转载时请标明出处:“本文转载于『浮游电影网』,原文地址:https://www.fuyouu.com/21169.html

评论吧骚年!

发表你的见解   

昵称*

E-mail*(建议输入,以便收到博主回复的提示邮件)

验证码*

您可以使用eMule或eMule Mod(Windows)、aMule(Win、Linux、Mac)等软件下载eD2k链接。。
eMule收藏集(.emulecollection)文件是您选中的所有链接的列表文件。eMule可以直接下载它们。
按住SHIFT键选择可以选中多个选择框。
可用文件名和大小选择器来选择文件。
文件名选择器帮您根据文件名称或后缀来选择文件。不分大小写。
符号使用:
和:空格( )、+
不包含:-
或:|
转义:一对英文引号("");
匹配开头:^
匹配结尾:$
例如:
选中所有名称中包含有“eMule”或“0.49c”字眼,但不包含有“exe”字眼的:emule|0.49c -exe
选中所有名称的开头是“eMule”,结尾是“0.49c”的:^emule 0.49c$
选中所有名称中带有“eMule 0.49c”的(必须是“eMule 0.49c”,中间没有别的字符,不能是“eMule fake 0.49c”),需要转义:"emule 0.49c"
大小选择器帮您根据文件大小选择文件。