当前位置: 首页 >> 欧美电影 >> 全民超人汉考克[国英多音轨/中英字幕].Hancock.2008.2160p.UHD.Bluray.HDR10.x265.Atmos.TrueHD.7.1-PAGE 25.42GB >> 正文

全民超人汉考克[国英多音轨/中英字幕].Hancock.2008.2160p.UHD.Bluray.HDR10.x265.Atmos.TrueHD.7.1-PAGE 25.42GB

2022年04月06日 23:11:33     电影发布:来源于网络     电影分类:欧美电影     评论(0)    

全民超人汉考克[国英多音轨/中英字幕].Hancock.2008.2160p.UHD.Bluray.HDR10.x265.Atmos.TrueHD.7.1 PAGE 25.42GB 奇幻 犯罪 动作 欧美电影  第1张

◎译 名 全民超人汉考克 / 街头超人(港) / 全民超人(台) / Tonight, He Comes

◎片 名 Hancock

◎年 代 2008

◎产 地 美国

◎类 别 动作 / 犯罪 / 奇幻

◎语 言 英语 / 日语

◎上映日期 2008-07-02(美国)

◎IMDb链接 https://www.imdb.com/title/tt0448157/

◎豆瓣评分 6.9/10 (177798人评价)

◎豆瓣链接 https://movie.douban.com/subject/1949312/

◎片 长 92 分钟

◎导 演 彼得·博格 Peter Berg (id:1031938)

◎编 剧 Vincent Ngo Vincent Ngo (id:1324147)

文斯·吉里根 Vince Gilligan (id:1004722)

◎演 员 威尔·史密斯 Will Smith (id:1027138)

查理兹·塞隆 Charlize Theron (id:1018991)

杰森·贝特曼 Jason Bateman (id:1013760)

杰·海德 Jae Head (id:1309865)

埃迪·马森 Eddie Marsan (id:1291072)

约翰尼·盖尔克奇 Johnny Galecki (id:1044725)

马丁·科勒巴 Martin Klebba (id:1010683)

托马斯·列农 Thomas Lennon (id:1025213)

Maetrix Fitten Maetrix Fitten (id:1082902)

约翰·弗雷泽 John Frazier (id:1083387)

阿齐瓦·高斯曼 Akiva Goldsman (id:1009507)

Algerita Wynn Lewis Algerita Wynn Lewis (id:1218047)

唐·阿伯纳西 Don Abernathy (id:1432739)

Nancy Grace Nancy Grace (id:1189809)

迈克尔·曼 Michael Mann (id:1007003)

艾伦·D·柏温 Alan D. Purwin (id:1294989)

Marc C. Geschwind Marc C. Geschwind (id:1092754)

布拉德·利兰 Brad Leland (id:1118902)

阿蒂库斯·沙弗尔 Atticus Shaffer (id:1017970)

艾伦·哈韦 Allan Havey (id:1092830)

Les Gardonyi (id:1250403)

Mark Simich Mark Simich (id:1187307)

玛丽杰西卡皮茨 Mary-Jessica Pitts (id:1243736)

爱德华·M·克拉汉 Edward M. Kelahan (id:1240426)

Julie Pepin (id:1233453)

Kristen Kelly (id:1232547)

大卫·希尔 David Hill (id:1231077)

阿莱克斯·哈维斯 Alexa Havins (id:1216740)

杰克·阿克塞尔罗德 Jack Axelrod (id:1057312)

Donald Gibb Donald Gibb (id:1099402)

Hayley Marie Norman Hayley Marie Norman (id:1183012)

Martin Magdaleno (id:1256990)

Mike McIntosh (id:1261835)

Rico Devereaux (id:1244276)

凯特克拉克 Kate Clarke (id:1071668)

埃迪·J.费尔南德斯 Eddie J. Fernandez (id:1283618)

彼得·博格 Peter Berg (id:1031938)

Elizabeth Dennehy Elizabeth Dennehy (id:1080812)

迈克·艾普斯 Mike Epps (id:1040592)

Michael Thornberry Michael Thornberry (id:1173691)

Jobeth Wagner (id:1270371)

戴维·马特 David Mattey (id:1041349)

安东尼奥·克里斯蒂纳 Antonio Christina (id:1267505)

Drew Taylor (id:1263376)

斯科特·迈克尔·摩根 Scott Michael Morgan (id:1213658)

乔纳森·莫斯托 Jonathan Mostow (id:1036739)

伊安·布莱斯 Ian Bryce (id:1279526)

迈克尔·曼 Michael Mann (id:1007003)

詹姆斯·拉西特 James Lassiter (id:1289478)

阿齐瓦·高斯曼 Akiva Goldsman (id:1009507)

威尔·史密斯 Will Smith (id:1027138)

约翰·鲍威尔 John Powell (id:1050025)

托比亚斯 A·施利斯勒 Tobias A. Schliessler (id:1443294)

保罗·鲁贝尔 Paul Rubell (id:1296267)

弗兰辛·梅思勒 Francine Maisler (id:1025402)

William Hawkins William Hawkins (id:1286243)

罗斯玛丽·勃兰登堡 Rosemary Brandenburg (id:1279191)

道恩·斯维德斯基 Dawn Swiderski (id:1298734)

路易斯·明根巴赫 Louise Mingenbach (id:1292166)

罗基·福克纳 Rocky Faulkner (id:1203811)

Cindy J. Williams Cindy J. Williams (id:1300951)

Kathrine Gordon Kathrine Gordon (id:1285188)

朱迪·默多克 Judy Murdock (id:1292738)

恩佐·昂吉莱利 Enzo Angileri (id:1277286)

皮尔斯·奥斯汀 Pierce Austin (id:1060398)

Christian Clarke Christian Clarke (id:1051738)

Andrew Ward Andrew Ward (id:1166225)

西蒙·克雷恩 Simon Crane (id:1281455)

亚当·T·魏辛格 Adam T. Weisinger (id:1161044)

大卫·萨迪 David Sardi (id:1296704)

Saleena Lockett Saleena Lockett (id:1214371)

Srikanth (id:1268271)

Dhiraj Brahma (id:1256329)

Noel Eaton (id:1237964)

Firat Enderoglu (id:1234304)

Bruno Vilela Bruno Vilela (id:1300055)

Bill Beemer Bill Beemer (id:1215957)

安德鲁·瑙罗特 Andrew Nawrot (id:1192390)

Jason M. Halverson Jason M. Halverson (id:1189393)

Yoshi DeHerrera Yoshi DeHerrera (id:1170636)

Sarah Coatts Sarah Coatts (id:1163314)

克里斯·威廉姆斯 Chris 'Willie' Williams (id:1161771)

Messrob Torikian Messrob Torikian (id:1154617)

P·凯文·斯科特 P. Kevin Scott (id:1146099)

Wendy Mashburn Wendy Mashburn (id:1126058)

保罗·麦吉 Paul McGhee (id:1118678)

Sue Campbell Sue Campbell (id:1279978)

Greg Derochie Greg Derochie (id:1282272)

容.格瑞斯 Ron Gress (id:1285436)

Fred Pienkos Fred Pienkos (id:1305243)

Keith W. Smith Keith W. Smith (id:1304841)

Chris Y. Yang Chris Y. Yang (id:1301404)

杰夫·沃尔弗顿 Jeff Wolverton (id:1301169)

凯里·维尔加斯 Carey Villegas (id:1300081)

麦克斯·泰里 Max Tyrie (id:1299685)

John E. Sasaki John E. Sasaki (id:1296724)

Ryan Laney Ryan Laney (id:1289381)

Josh R. Jaggars Josh R. Jaggars (id:1287538)

Mark Holmes Mark Holmes (id:1286831)

Owen Hammer Owen Hammer (id:1285922)

马修·格拉茨纳 Matthew Gratzner (id:1285331)

David Emery David Emery (id:1283180)

科林·德罗布尼斯 Colin Drobnis (id:1282732)

Aaron James McComas Aaron James McComas (id:1103899)

David Van Woert David Van Woert (id:1053127)

Anthony Ceccomancini Anthony Ceccomancini (id:1072663)

戴维·C·布莱恩特 David C. Bryant (id:1008497)

Richard Kidd Richard Kidd (id:1043605)

约翰·戴克斯特拉 John Dykstra (id:1018536)

◎简 介

Hancock(Will Smith饰),是刀枪不入的全民超人,犯罪分子对他闻风丧胆。然而这位全民超人每次与犯罪分子对峙都闹得惊天动地,造成严重的破坏,对市民的生命和公共财产都是巨大的威胁。这也就是虽然他有着独一无二的能力却仍然得不到大众认同的原因。他暴躁易怒又不辩解的个性更是激化了矛盾。这天公关经理Ray Embrey(Jason Bateman饰)十分倒霉,不仅他的全球爱心理念推销不出去,更在回家的途中被塞车堵在了火车轨道上,险些就被火车一碾而过。Hancock及时出现救了他一命,不可阻挡地破坏了火车和现场的交通,惹起众怒。Ray却灵光一闪,决定包装Hancock,把他塑造成为一位全民爱戴的英雄。没想到,最大的反对竟然来自他的妻子Mary(Charlize Theron饰),她坚持要Hancock离开她的家庭。事情发展下去,牵扯出令人惊讶的缠绵前...

  1. ##### MediaInfo ######

  2. General

  3. Unique ID : 106033013307130723852897194146580269259 (0x4FC5372DC5BBBA180D23D494B22A08CB)

  4. Complete name : Hancock.2008.2160p.UHD.Bluray.HDR10.x265.Atmos.TrueHD.7.1-PTH.mkv

  5. Format : Matroska

  6. Format version : Version 4

  7. File size : 25.4 GiB

  8. Duration : 1 h 42 min

  9. Overall bit rate mode : Variable

  10. Overall bit rate : 35.6 Mb/s

  11. Encoded date : UTC 2022-04-04 19:09:53

  12. Writing application : mkvmerge v66.0.0 ('Josie') 64-bit

  13. Writing library : libebml v1.4.2 + libmatroska v1.6.4

  14. Cover : Yes

  15. Attachments : cover.jpg / cover.jpg

  16. Video

  17. ID : 1

  18. Format : HEVC

  19. Format/Info : High Efficiency Video Coding

  20. Format profile : Main [email protected]@High

  21. HDR format : SMPTE ST 2086, HDR10 compatible

  22. Codec ID : V_MPEGH/ISO/HEVC

  23. Duration : 1 h 32 min

  24. Bit rate : 35.6 Mb/s

  25. Width : 3 840 pixels

  26. Height : 1 608 pixels

  27. Display aspect ratio : 2.40:1

  28. Frame rate mode : Constant

  29. Frame rate : 23.976 (24000/1001/53354) FPS

  30. Color space : YUV

  31. Chroma subsampling : 4:2:0

  32. Bit depth : 10 bits

  33. Bits/(Pixel*Frame) : 0.241

  34. Stream size : 22.9 GiB (90%)

  35. Writing library : x265 3.3+3-g8f8e332f1+29:[Windows][#Erg`Djh#][@Yuuki] made by @Dongfangbubai

  36. Encoding settings : rc=crf / crf=18.0000 / qcomp=0.70 / qpstep=4 / stats-write=0 / stats-read=0 / vbv-maxrate=160000 / vbv-bufsize=160000 / vbv-init=0.9 / crf-max=0.0 / crf-min=0.0 / no-lossless / no-cu-lossless / aq-mode=3 / aq-strength=0.80 / cbqpoffs=-3 / crqpoffs=-3 / ipratio=1.40 / pbratio=1.30 / psy-rd=2.00 / psy-rdoq=3.00 / deblock=-1:-1 / ref=5 / limit-refs=0 / no-limit-modes / bframes=8 / b-adapt=2 / bframe-bias=0 / b-pyramid / b-intra / weightp / weightb / min-keyint=23 / max-keyint=240 / rc-lookahead=60 / gop-lookahead=0 / NTMzNTQ=uuDQuD2mJt9fsCf / scenecut=40 / hist-scenecut=0 / radl=0 / max-cu-size=32 / min-cu-size=8 / me=3 / subme=4 / merange=25 / rdoq-level=2 / rd=4 / rdpenalty=1 / dynamic-rd=0.00 / no-rd-refine / ----- / no-cutree / no-sao / no-rect / no-amp / no-open-gop / wpp / pmode / pme / no-psnr / no-ssim / nr-intra=0 / nr-inter=0 / no-constrained-intra / no-strong-intra-smoothing / max-tu-size=32 / tu-inter-depth=2 / tu-intra-depth=2 / limit-tu=0 / qg-size=32 / qpmax=69 / qpmin=0 / ----- / cpuid=533541176575 / frame-threads=6 / numa-pools=54,- / log-level=2 / input-csp=1 / input-res=3840x1608 / interlace=0 / level-idc=0 / high-tier=1 / uhd-bd=0 / no-allow-non-conformance / repeat-headers / aud / hrd / info / hash=0 / no-temporal-layers / lookahead-slices=0 / no-splice / no-intra-refresh / no-ssim-rd / signhide / no-tskip / max-merge=3 / temporal-mvp / no-frame-dup / no-hme / no-analyze-src-pics / no-sao-non-deblock / selective-sao=0 / no-early-skip / no-rskip / no-fast-intra / no-tskip-fast / no-splitrd-skip / zone-count=0 / no-strict-cbr / no-rc-grain / no-const-vbv / sar=0 / overscan=0 / videoformat=5 / range=0 / colorprim=9 / transfer=16 / colormatrix=9 / chromaloc=0 / display-window=0 / master-display=G(13250,34500)B(7500,3000)R(34000,16000)WP(15635,16450)L(40000000,50) / cll=1419,520 / min-luma=0 / max-luma=1023 / log2-max-poc-lsb=8 / vui-timing-info / vui-hrd-info / slices=1 / no-opt-qp-pps / no-opt-ref-list-length-pps / no-multi-pass-opt-rps / scenecut-bias=0.05 / hist-threshold=0.01 / no-opt-cu-delta-qp / no-aq-motion / hdr10 / hdr10-opt / no-dhdr10-opt / no-idr-recovery-sei / analysis-reuse-level=0 / analysis-save-reuse-level=0 / analysis-load-reuse-level=0 / scale-factor=0 / refine-intra=0 / refine-inter=0 / refine-mv=1 / refine-ctu-distortion=0 / no-limit-sao / ctu-info=0 / no-lowpass-dct / refine-analysis-type=0 / copy-pic=1 / max-ausize-factor=1.0 / no-dynamic-refine / no-single-sei / no-hevc-aq / no-svt / no-field / qp-adaptation-range=1.00 / no-scenecut-aware-qpconformance-window-offsets / right=0 / bottom=0 / NTMzNTQ=

  37. Default : Yes

  38. Forced : No

  39. Color range : Limited

  40. Color primaries : BT.2020

  41. Transfer characteristics : PQ

  42. Matrix coefficients : BT.2020 non-constant

  43. Mastering display color primaries : Display P3

  44. Mastering display luminance : min: 0.0050 cd/m2, max: 4000 cd/m2

  45. Maximum Content Light Level : 1419 cd/m2

  46. Maximum Frame-Average Light Level : 520 cd/m2

  47. Audio #1

  48. ID : 2

  49. Format : MLP FBA 16-ch

  50. Format/Info : Meridian Lossless Packing FBA with 16-channel presentation

  51. Commercial name : Dolby TrueHD with Dolby Atmos

  52. Codec ID : A_TRUEHD

  53. Duration : 1 h 4 min

  54. Bit rate mode : Variable

  55. Bit rate : 4 712 kb/s

  56. Maximum bit rate : 8 286 kb/s

  57. Channel(s) : 8 channels

  58. Channel layout : L R C LFE Ls Rs Lb Rb

  59. Sampling rate : 48.0 kHz

  60. Frame rate : 1 200.000 FPS (40 SPF)

  61. Compression mode : Lossless

  62. Stream size : 2.13 GiB (8%)

  63. Language : English

  64. Default : Yes

  65. Forced : No

  66. Number of dynamic objects : 11

  67. Bed channel count : 1 channel

  68. Bed channel configuration : LFE

  69. Audio #2

  70. ID : 3

  71. Format : AC-3

  72. Format/Info : Audio Coding 3

  73. Commercial name : Dolby Digital

  74. Codec ID : A_AC3

  75. Duration : 1 h 42 min

  76. Bit rate mode : Constant

  77. Bit rate : 448 kb/s

  78. Channel(s) : 6 channels

  79. Channel layout : L R C LFE Ls Rs

  80. Sampling rate : 48.0 kHz

  81. Frame rate : 31.250 FPS (1536 SPF)

  82. Compression mode : Lossy

  83. Stream size : 328 MiB (1%)

  84. Title : 国语

  85. Language : Chinese

  86. Service kind : Complete Main

  87. Default : No

  88. Forced : No

  89. Text #1

  90. ID : 4

  91. Format : ASS

  92. Codec ID : S_TEXT/ASS

  93. Codec ID/Info : Advanced Sub Station Alpha

  94. Duration : 1 h 35 min

  95. Bit rate : 191 b/s

  96. Count of elements : 2295

  97. Compression mode : Lossless

  98. Stream size : 134 KiB (0%)

  99. Title : 中英文字幕

  100. Language : English

  101. Default : No

  102. Forced : No

  103. Text #2

  104. ID : 5

  105. Format : ASS

  106. Codec ID : S_TEXT/ASS

  107. Codec ID/Info : Advanced Sub Station Alpha

  108. Duration : 1 h 35 min

  109. Bit rate : 89 b/s

  110. Count of elements : 1150

  111. Compression mode : Lossless

  112. Stream size : 62.3 KiB (0%)

  113. Title : 中文字幕

  114. Language : Chinese

  115. Default : No

  116. Forced : No


文件下载


除非特别注明,本文『全民超人汉考克[国英多音轨/中英字幕].Hancock.2008.2160p.UHD.Bluray.HDR10.x265.Atmos.TrueHD.7.1-PAGE 25.42GB』来源于互联网机器人自动抓取,非本站原创。 浮游电影网不对本文拥有版权,如有侵犯,请联系邮箱:fuyouu#yandex.com[#换成@]投诉。我们会在15个工作日内删除。 但烦请转载时请标明出处:“本文转载于『浮游电影网』,原文地址:https://www.fuyouu.com/21168.html

评论吧骚年!

发表你的见解   

昵称*

E-mail*(建议输入,以便收到博主回复的提示邮件)

验证码*

您可以使用eMule或eMule Mod(Windows)、aMule(Win、Linux、Mac)等软件下载eD2k链接。。
eMule收藏集(.emulecollection)文件是您选中的所有链接的列表文件。eMule可以直接下载它们。
按住SHIFT键选择可以选中多个选择框。
可用文件名和大小选择器来选择文件。
文件名选择器帮您根据文件名称或后缀来选择文件。不分大小写。
符号使用:
和:空格( )、+
不包含:-
或:|
转义:一对英文引号("");
匹配开头:^
匹配结尾:$
例如:
选中所有名称中包含有“eMule”或“0.49c”字眼,但不包含有“exe”字眼的:emule|0.49c -exe
选中所有名称的开头是“eMule”,结尾是“0.49c”的:^emule 0.49c$
选中所有名称中带有“eMule 0.49c”的(必须是“eMule 0.49c”,中间没有别的字符,不能是“eMule fake 0.49c”),需要转义:"emule 0.49c"
大小选择器帮您根据文件大小选择文件。