当前位置: 首页 >> 欧美电影 >> 独立日[共2部合集][简繁英字幕].Independence.Day.1-2.1996-2016.UHD.BluRay.2160p.TrueHD.Atmos.7.1.x265.10bit.HDR-AL >> 正文

独立日[共2部合集][简繁英字幕].Independence.Day.1-2.1996-2016.UHD.BluRay.2160p.TrueHD.Atmos.7.1.x265.10bit.HDR-AL

2022年04月06日 23:08:47     电影发布:来源于网络     电影分类:欧美电影     评论(0)    

独立日[共2部合集][简繁英字幕].Independence.Day.1 2.1996 2016.UHD.BluRay.2160p.TrueHD.Atmos.7.1.x265.10bit.HDR AL 科幻 冒险 动作 欧美电影  第1张

◎译 名 独立日 / ID4星际终结者(台) / 天煞-地球反击战(港) / 地球捍卫战

◎片 名 Independence Day

◎年 代 1996

◎产 地 美国

◎类 别 动作 / 科幻 / 冒险 / 灾难

◎语 言 英语

◎上映日期 1996-07-02(加拿大) / 1996-07-03(美国)

◎IMDb链接 https://www.imdb.com/title/tt0116629/

◎豆瓣评分 8.1/10 (264598人评价)

◎豆瓣链接 https://movie.douban.com/subject/1293013/

◎片 长 145分钟

◎导 演 罗兰·艾默里奇 Roland Emmerich (id:1040593)

◎编 剧 罗兰·艾默里奇 Roland Emmerich (id:1040593)

迪安·德夫林 Dean Devlin (id:1050031)

◎演 员 威尔·史密斯 Will Smith (id:1027138)

杰夫·高布伦 Jeff Goldblum (id:1025109)

比尔·普尔曼 Bill Pullman (id:1036384)

玛丽·麦克唐纳 Mary McDonnell (id:1044889)

贾德·赫希 Judd Hirsch (id:1055274)

罗伯特·劳吉亚 Robert Loggia (id:1013914)

兰迪·奎德 Randy Quaid (id:1027846)

玛格丽特·柯林 Margaret Colin (id:1018028)

薇薇卡·福克斯 Vivica A. Fox (id:1025223)

詹姆斯·瑞布霍恩 James Rebhorn (id:1049801)

哈维·费斯特恩 Harvey Fierstein (id:1017976)

亚当·鲍德温 Adam Baldwin (id:1031806)

布伦特·斯皮内 Brent Spiner (id:1007012)

詹姆斯·杜瓦尔 James Duval (id:1055541)

莉萨·雅克布 Lisa Jakub (id:1055790)

杰赛普·安德鲁斯 Giuseppe Andrews (id:1048164)

罗斯·巴格利 Ross Bagley (id:1057082)

比尔·斯米托洛维奇 Bill Smitrovich (id:1149373)

梅·惠特曼 Mae Whitman (id:1017892)

小哈里·康尼克 Harry Connick Jr. (id:1049624)

绮尔斯腾·瓦伦 Kiersten Warren (id:1040628)

约翰·斯托里 John Storey (id:1367781)

弗兰克·诺瓦克 Frank Novak (id:1136987)

德文·古梅尔萨尔 Devon Gummersall (id:1027363)

吉姆·皮多克 Jim Piddock (id:1002822)

罗伯特·派恩 Robert Pine (id:1010687)

皮特·J.卢卡斯 Peter J. Lucas (id:1121324)

小理察·斯贝特 Richard Speight Jr. (id:1049788)

Anthony Crivello Anthony Crivello (id:1069383)

巴里·德尔·舍曼 Barry Del Sherman (id:1082821)

克里斯托弗·康纳德 Kristof Konrad (id:1113553)

格雷格·科林斯 Greg Collins (id:1071934)

维恩·维尔德森 Wayne Wilderson (id:1165046)

珍娜·马瑞·霍普 Jana Marie Hupp (id:1108676)

兰斯·霍华德 Rance Howard (id:1054335)

Adam Tomei Adam Tomei (id:1160669)

金伯莉·贝克 Kimberly Beck (id:1061629)

卡德罗莎·奥娜·卡罗尔 (id:1459808)

德里克·韦伯斯特 Derek Webster (id:1450300)

安德鲁·凯加 Andrew Keegan (id:1007017)

约翰·贝内特·派瑞 John Bennett Perry (id:1014085)

卡洛斯·拉卡马拉 Carlos Lacamara (id:1110394)

丹·劳里亚 Dan Lauria (id:1002792)

杰·阿克沃内 Jay Acovone (id:1056371)

拉法埃尔·沙巴拉格 Raphael Sbarge (id:1144053)

利兰·奥瑟 Leland Orser (id:1025230)

Darla Rae Darla Rae (id:1309790)

Jon Matthews Jon Matthews (id:1297368)

Daren Dochterman Daren Dochterman (id:1282515)

鲍比·霍希 Bobby Hosea (id:1094171)

加里·A·赫克 Gary A. Hecker (id:1286338)

罗兰·艾默里奇 Roland Emmerich (id:1040593)

彼得·温瑟 Peter Winther (id:1411767)

大卫·阿诺德 David Arnold (id:1005192)

卡尔·沃尔特·林登 Karl Walter Lindenlaub (id:1018702)

大卫·布伦纳 David Brenner (id:1279253)

Wendy Kurtzman Wendy Kurtzman (id:1289134)

吉姆·埃里克森 Jim Erickson (id:1303143)

帕特里克·塔特普洛斯 Patrick Tatopoulos (id:1298949)

William James Teegarden William James Teegarden (id:1299026)

奥利弗·肖尔 Oliver Scholl (id:1421437)

萨尼娅·米尔科维奇·海斯 Sanja Milkovic Hays (id:1051411)

Joseph A. Porro Joseph A. Porro (id:1294749)

Toni-Ann Walker Toni-Ann Walker (id:1300313)

乔伊·萨帕塔 Joy Zapata (id:1301634)

Patricia Miller Patricia Miller (id:1292094)

Candace Neal Candace Neal (id:1292976)

Aaron F. Quarles Aaron F. Quarles (id:1295055)

Renate Leuschner Renate Leuschner (id:1289866)

Michael F. Blake Michael F. Blake (id:1278749)

哈泽尔·凯特穆尔 Hazel Catmull (id:1280294)

Katalin Elek Katalin Elek (id:1283086)

佐尔坦·埃雷克 Zoltan Elek (id:1283102)

诺玛·李 Norma Lee (id:1289694)

Kevin LaRosa Kevin LaRosa (id:1289209)

巴克·德洛姆 Bac DeLorme (id:1276511)

塞尔吉奥·米米卡-戈赞 Sergio Mimica-Gezzan (id:1292148)

Glen Trotiner Glen Trotiner (id:1299553)

Dean Garvin Dean Garvin (id:1284592)

Jennifer German Jennifer German (id:1284737)

Jeff Frost Jeff Frost (id:1284261)

克莱格·巴朗 Craig Barron (id:1277981)

安娜·福斯特 Anna Foerster (id:1283907)

Craig A. Mumma Craig A. Mumma (id:1292701)

迈克尔·彼得森 Michael Peterson (id:1294384)

Andrea D'Amico Andrea D'Amico (id:1281681)

吉姆·戈尔曼 Jim Gorman (id:1285203)

Greg Groenekamp Greg Groenekamp (id:1285507)

迪昂·哈奇 Dion Hatch (id:1286215)

卡尔·胡珀 Carl Hooper (id:1286879)

格雷格·金布尔 Greg Kimble (id:1288555)

Marc Kolbe Marc Kolbe (id:1288837)

Daniel Kramer Daniel Kramer (id:1288968)

雷·麦金太尔 Ray McIntyre Jr. (id:1291625)

迈克尔·洛伊德 Michael Lloyd (id:1290195)

Terry Clotiaux Terry Clotiaux (id:1280918)

Lawrence Littleton Lawrence Littleton (id:1290161)

特里西亚·亨利·阿什福德 Tricia Henry Ashford (id:1277486)

Fred Fouquet Fred Fouquet (id:1276432)

马克·威格特 Marc Weigert (id:1300595)

行弘进 Susumu Yukuhiro (id:1303480)

罗布·布雷多 Rob Bredow (id:1279230)

道格拉斯·汉斯·史密斯 Douglas Hans Smith (id:1297879)

Kirk Cadrette Kirk Cadrette (id:1279848)

托马斯·J·史密斯 Thomas J. Smith (id:1276658)

◎简 介

未来某年的7月2日,美国各地的监视站发现一艘直径达数百英里的巨大飞船接近了地球。飞船发出的无线电信号干扰了地球的通信卫星信号,并放出了多艘直径达15英里的子飞船飞抵地球上各大城市的上空。外星飞船敌友未明,人们陷入了恐慌和迷惑。

电脑工程师戴维(杰夫?戈德布拉姆 饰)破译出外星人发出的无线电信号,其实是攻击的倒计时信号,他设法通知了前妻,总统的助理康妮,但是为时已晚,7月3日,外星人的飞船开始攻击地球,人类文明瞬间遭到巨大的打击和灾难。总统(比尔?普尔曼 饰)等人撤离到军事基地,指挥空军反击,却犹如以卵击石,毫无作用,军事基地也被摧毁,唯有飞行员史蒂文(威尔?史密斯 饰)设法诱使一架外星人战斗飞艇坠毁。

幸存者们逃到了秘密军事基地,在那里,科学家们一直在研究一艘50多年前坠毁的外星飞艇,致力于找出对付外星人的办法,那里也是人类最后的希望……

◎获奖情况 (共4项)

第69届奥斯卡金像奖 (1997)

最佳视觉效果

最佳音响(提名)

第20届日本电影学院奖 (1997)

最佳外语片(提名)

第15届美国视觉效果协会奖 (2017)

最佳电影视觉效果合成(提名)

  1. 合集文件列表:

  2. 1.Independence.Day.1996.UHD.BluRay.2160p.DTS-HD.MA.7.1.x265.10bit.HDR-ALT.mkv 24.50GB

  3. 2.Independence.Day.Resurgence.2016.UHD.BluRay.2160p.TrueHD.Atmos.7.1.x265.10bit.HDR-ALT.mkv 18.40GB


复制代码

  1. ##### MediaInfo ######

  2. General

  3. Unique ID : 41232309153359580561034691297624024486 (0x1F050DCB91B3C9AAFAF17F8E0B5165A6)

  4. Complete name : Independence.Day.1996.UHD.BluRay.2160p.DTS-HD.MA.7.1.x265.10bit.HDR-ALT.mkv

  5. Format : Matroska

  6. Format version : Version 4

  7. File size : 24.5 GiB

  8. Duration : 2 h 33 min

  9. Overall bit rate mode : Variable

  10. Overall bit rate : 22.8 Mb/s

  11. Movie name : Independence Day

  12. Encoded date : UTC 2020-11-14 06:03:57

  13. Writing application : mkvmerge v49.0.0 ('Sick Of Losing Soulmates') 64-bit

  14. Writing library : libebml v1.4.0 + libmatroska v1.6.1

  15. Cover : Yes

  16. Attachments : cover.jpg

  17. Video

  18. ID : 1

  19. Format : HEVC

  20. Format/Info : High Efficiency Video Coding

  21. Format profile : Main [email protected]@High

  22. HDR format : SMPTE ST 2086, HDR10 compatible

  23. Codec ID : V_MPEGH/ISO/HEVC

  24. Duration : 2 h 33 min

  25. Bit rate : 16.6 Mb/s

  26. Width : 3 840 pixels

  27. Height : 1 608 pixels

  28. Display aspect ratio : 2.40:1

  29. Frame rate mode : Constant

  30. Frame rate : 23.976 (24000/1001/53354) FPS

  31. Color space : YUV

  32. Chroma subsampling : 4:2:0 (Type 2)

  33. Bit depth : 10 bits

  34. Bits/(Pixel*Frame) : 0.112

  35. Stream size : 17.8 GiB (73%)

  36. Title : HEVC, [email protected]@High, 24/1.001 fps @ 16607 kbps

  37. Writing library : x265 3.4+14-gd419c7152:[Windows][GCC 10.2.0][64 bit] 10bit

  38. Encoding settings : cpuid=533541111039 / frame-threads=5 / numa-pools=44,44 / wpp / pmode / pme / no-psnr / no-ssim / log-level=2 / input-csp=1 / input-res=3840x1608 / interlace=0 / total-frames=220902 / level-idc=51 / high-tier=1 / uhd-bd=0 / ref=4 / no-allow-non-conformance / repeat-headers / annexb / no-aud / hrd / info / hash=0 / no-temporal-layers / no-open-gop / min-keyint=24 / keyint=240 / gop-lookahead=0 / bframes=8 / b-adapt=2 / b-pyramid / bframe-bias=0 / rc-lookahead=25 / lookahead-slices=0 / NTMzNTQ=uuDQuD2mJt9fsCf / scenecut=40 / hist-scenecut=0 / radl=0 / no-splice / no-intra-refresh / ctu=64 / min-cu-size=8 / no-rect / no-amp / max-tu-size=32 / tu-inter-depth=3 / tu-intra-depth=3 / limit-tu=4 / rdoq-level=2 / dynamic-rd=0.00 / no-ssim-rd / signhide / no-tskip / nr-intra=0 / nr-inter=0 / no-constrained-intra / no-strong-intra-smoothing / max-merge=4 / limit-refs=1 / limit-modes / me=3 / subme=4 / merange=25 / temporal-mvp / no-frame-dup / no-hme / weightp / weightb / no-analyze-src-pics / deblock=-3:-3 / no-sao / no-sao-non-deblock / rd=6 / selective-sao=0 / no-early-skip / rskip / no-fast-intra / no-tskip-fast / no-cu-lossless / b-intra / no-splitrd-skip / rdpenalty=0 / psy-rd=2.00 / psy-rdoq=1.00 / no-rd-refine / no-lossless / cbqpoffs=0 / crqpoffs=0 / rc=crf / crf=21.0 / qcomp=0.65 / qpstep=4 / stats-write=0 / stats-read=0 / vbv-maxrate=160000 / vbv-bufsize=160000 / vbv-init=0.9 / crf-max=0.0 / crf-min=0.0 / ipratio=1.30 / pbratio=1.20 / aq-mode=3 / aq-strength=0.85 / cutree / zone-count=0 / no-strict-cbr / qg-size=32 / no-rc-grain / qpmax=69 / qpmin=0 / no-const-vbv / sar=1 / overscan=0 / videoformat=5 / range=0 / colorprim=9 / transfer=16 / colormatrix=9 / chromaloc=1 / chromaloc-top=2 / chromaloc-bottom=2 / display-window=0 / master-display=G(13250,34500)B(7500,3000)R(34000,16000)WP(15635,16450)L(10000000,0) / cll=0,0 / min-luma=0 / max-luma=1023 / log2-max-poc-lsb=8 / vui-timing-info / vui-hrd-info / slices=1 / no-opt-qp-pps / no-opt-ref-list-length-pps / no-multi-pass-opt-rps / scenecut-bias=0.05 / hist-threshold=0.03 / no-opt-cu-delta-qp / no-aq-motion / hdr10 / hdr10-opt / no-dhdr10-opt / no-idr-recovery-sei / analysis-reuse-level=0 / analysis-save-reuse-level=0 / analysis-load-reuse-level=0 / scale-factor=0 / refine-intra=0 / refine-inter=0 / refine-mv=1 / refine-ctu-distortion=0 / no-limit-sao / ctu-info=0 / no-lowpass-dct / refine-analysis-type=0 / copy-pic=1 / max-ausize-factor=1.0 / no-dynamic-refine / no-single-sei / no-hevc-aq / no-svt / no-field / qp-adaptation-range=1.00 / no-scenecut-aware-qpconformance-window-offsets / right=0 / bottom=0 / NTMzNTQ= / decoder-max-rate=0

  39. Language : English

  40. Default : Yes

  41. Forced : No

  42. Color range : Limited

  43. Color primaries : BT.2020

  44. Transfer characteristics : PQ

  45. Matrix coefficients : BT.2020 non-constant

  46. Mastering display color primaries : Display P3

  47. Mastering display luminance : min: 0.0000 cd/m2, max: 1000 cd/m2

  48. Audio

  49. ID : 2

  50. Format : DTS XLL

  51. Format/Info : Digital Theater Systems

  52. Commercial name : DTS-HD Master Audio

  53. Codec ID : A_DTS

  54. Duration : 2 h 33 min

  55. Bit rate mode : Variable

  56. Bit rate : 6 139 kb/s

  57. Channel(s) : 8 channels

  58. Channel layout : C L R LFE Lb Rb Lss Rss

  59. Sampling rate : 48.0 kHz

  60. Frame rate : 93.750 FPS (512 SPF)

  61. Bit depth : 24 bits

  62. Compression mode : Lossless

  63. Delay relative to video : 2 ms

  64. Stream size : 6.59 GiB (27%)

  65. Title : English DTS-HD Master Audio 7.1 @ 6139 Kbps

  66. Language : English

  67. Default : Yes

  68. Forced : No

  69. Text #1

  70. ID : 3

  71. Format : PGS

  72. Codec ID : S_HDMV/PGS

  73. Codec ID/Info : Picture based subtitle format used on BDs/HD-DVDs

  74. Duration : 2 h 23 min

  75. Bit rate : 35.2 kb/s

  76. Count of elements : 3573

  77. Stream size : 36.1 MiB (0%)

  78. Title : Eng/SUP

  79. Language : English

  80. Default : No

  81. Forced : No

  82. Text #2

  83. ID : 4

  84. Format : PGS

  85. Codec ID : S_HDMV/PGS

  86. Codec ID/Info : Picture based subtitle format used on BDs/HD-DVDs

  87. Duration : 2 h 25 min

  88. Bit rate : 23.5 kb/s

  89. Count of elements : 4234

  90. Stream size : 24.4 MiB (0%)

  91. Title : Chs/SUP 简体

  92. Language : Chinese

  93. Default : Yes

  94. Forced : No

  95. Text #3

  96. ID : 5

  97. Format : PGS

  98. Codec ID : S_HDMV/PGS

  99. Codec ID/Info : Picture based subtitle format used on BDs/HD-DVDs

  100. Duration : 2 h 25 min

  101. Bit rate : 24.7 kb/s

  102. Count of elements : 4234

  103. Stream size : 25.7 MiB (0%)

  104. Title : Cht/SUP 繁体

  105. Language : Chinese

  106. Default : No

  107. Forced : No

  108. Menu

  109. 00:00:00.000 : en:第 01 章

  110. 00:02:43.872 : en:第 02 章

  111. 00:05:01.467 : en:第 03 章

  112. 00:07:32.577 : en:第 04 章

  113. 00:08:02.315 : en:第 05 章

  114. 00:09:21.602 : en:第 06 章

  115. 00:10:29.879 : en:第 07 章

  116. 00:12:06.600 : en:第 08 章

  117. 00:14:08.514 : en:第 09 章

  118. 00:14:56.729 : en:第 10 章

  119. 00:18:56.969 : en:第 11 章

  120. 00:25:33.114 : en:第 12 章

  121. 00:27:23.725 : en:第 13 章

  122. 00:30:10.808 : en:第 14 章

  123. 00:32:18.102 : en:第 15 章

  124. 00:34:12.633 : en:第 16 章

  125. 00:36:39.405 : en:第 17 章

  126. 00:38:17.378 : en:第 18 章

  127. 00:40:05.110 : en:第 19 章

  128. 00:41:02.167 : en:第 20 章

  129. 00:41:33.449 : en:第 21 章

  130. 00:44:15.611 : en:第 22 章

  131. 00:44:37.925 : en:第 23 章

  132. 00:46:02.801 : en:第 24 章

  133. 00:48:48.008 : en:第 25 章

  134. 00:50:42.038 : en:第 26 章

  135. 00:54:22.717 : en:第 27 章

  136. 00:57:22.480 : en:第 28 章

  137. 00:58:05.148 : en:第 29 章

  138. 01:03:10.995 : en:第 30 章

  139. 01:04:30.157 : en:第 31 章

  140. 01:06:00.748 : en:第 32 章

  141. 01:06:52.967 : en:第 33 章

  142. 01:08:20.012 : en:第 34 章

  143. 01:11:22.027 : en:第 35 章

  144. 01:12:50.324 : en:第 36 章

  145. 01:14:38.140 : en:第 37 章

  146. 01:18:29.537 : en:第 38 章

  147. 01:21:19.207 : en:第 39 章

  148. 01:23:04.729 : en:第 40 章

  149. 01:25:59.779 : en:第 41 章

  150. 01:27:49.680 : en:第 42 章

  151. 01:35:25.260 : en:第 43 章

  152. 01:38:52.217 : en:第 44 章

  153. 01:39:55.572 : en:第 45 章

  154. 01:42:51.790 : en:第 46 章

  155. 01:49:33.232 : en:第 47 章

  156. 01:53:25.339 : en:第 48 章

  157. 01:55:01.060 : en:第 49 章

  158. 01:59:38.754 : en:第 50 章

  159. 02:04:03.393 : en:第 51 章

  160. 02:07:41.403 : en:第 52 章

  161. 02:10:50.675 : en:第 53 章

  162. 02:11:52.612 : en:第 54 章

  163. 02:17:21.316 : en:第 55 章

  164. 02:21:17.343 : en:第 56 章

  165. 02:24:48.679 : en:第 57 章


复制代码



文件下载


除非特别注明,本文『独立日[共2部合集][简繁英字幕].Independence.Day.1-2.1996-2016.UHD.BluRay.2160p.TrueHD.Atmos.7.1.x265.10bit.HDR-AL』来源于互联网机器人自动抓取,非本站原创。 浮游电影网不对本文拥有版权,如有侵犯,请联系邮箱:fuyouu#yandex.com[#换成@]投诉。我们会在15个工作日内删除。 但烦请转载时请标明出处:“本文转载于『浮游电影网』,原文地址:https://www.fuyouu.com/21166.html

评论吧骚年!

发表你的见解   

昵称*

E-mail*(建议输入,以便收到博主回复的提示邮件)

验证码*

您可以使用eMule或eMule Mod(Windows)、aMule(Win、Linux、Mac)等软件下载eD2k链接。。
eMule收藏集(.emulecollection)文件是您选中的所有链接的列表文件。eMule可以直接下载它们。
按住SHIFT键选择可以选中多个选择框。
可用文件名和大小选择器来选择文件。
文件名选择器帮您根据文件名称或后缀来选择文件。不分大小写。
符号使用:
和:空格( )、+
不包含:-
或:|
转义:一对英文引号("");
匹配开头:^
匹配结尾:$
例如:
选中所有名称中包含有“eMule”或“0.49c”字眼,但不包含有“exe”字眼的:emule|0.49c -exe
选中所有名称的开头是“eMule”,结尾是“0.49c”的:^emule 0.49c$
选中所有名称中带有“eMule 0.49c”的(必须是“eMule 0.49c”,中间没有别的字符,不能是“eMule fake 0.49c”),需要转义:"emule 0.49c"
大小选择器帮您根据文件大小选择文件。