当前位置: 首页 >> 国产电影 >> 冰封侠[共2部合集][国粤英多音轨/简繁英字幕].Iceman.2014-2018.BluRay.1080p.2Audio.TrueHD.5.1.x265.10bit-ALT 23.02GB >> 正文

冰封侠[共2部合集][国粤英多音轨/简繁英字幕].Iceman.2014-2018.BluRay.1080p.2Audio.TrueHD.5.1.x265.10bit-ALT 23.02GB

2022年04月06日 23:07:04     电影发布:来源于网络     电影分类:国产电影     评论(0)    

冰封侠[共2部合集][国粤英多音轨/简繁英字幕].Iceman.2014 2018.BluRay.1080p.2Audio.TrueHD.5.1.x265.10bit ALT 23.02GB 奇幻 动作 喜剧 国产电影  第1张

◎译 名 冰封:重生之门 / 冰封侠:重生之门(港) / 急冻行者(台) / 3D冰封侠 / The Iceman

◎年 代 2014

◎产 地 中国大陆

◎类 别 喜剧 / 动作 / 奇幻

◎语 言 汉语普通话 / 粤语

◎上映日期 2014-04-25(中国大陆) / 2014-04-17(中国香港)

◎IMDb链接 https://www.imdb.com/title/tt2557256/

◎豆瓣评分 3.9/10 (43661人评价)

◎豆瓣链接 https://movie.douban.com/subject/6973460/

◎片 长 91分钟(中国大陆)

◎导 演 罗永昌 Wing-cheong Law (id:1274489)

甄子丹 Donnie Yen (id:1025194)

萧定一 Ding-Yat Siu (id:1324854)

◎编 剧 林逢 Fung Lam (id:1339119)

沈锡然 Toni Shum (id:1411000)

◎演 员 甄子丹 Donnie Yen (id:1025194)

王宝强 Baoqiang Wang (id:1274388)

黄圣依 Eva Huang (id:1005110)

任达华 Simon Yam (id:1031194)

喻亢 Kang Yu (id:1339113)

林雪 Suet Lam (id:1274279)

张少华 Shaohua Zhang (id:1274644)

陈浩民 Ho-Man Chan (id:1274567)

胡明 Ming Hu (id:1275967)

王宗尧 Gregory Wong (id:1275652)

庄思敏 Jacquelin Chong (id:1326932)

胡耀辉 Mark Wu (id:1323051)

雨侨 YuKiu Ava (id:1315568)

陈炜 Alice Chan (id:1042796)

卢海鹏 Hoi-Pang Lo (id:1038772)

黄文慧 Man-Wai Wong (id:1330485)

陈慧慧 Huihui Chen (id:1339110)

包雨萌 Yumeng Bao (id:1339112)

陈浩 Hao Chen (id:1329520)

王文绮 Wenqi Wang (id:1334819)

辛格·哈提汗·比托 Singh Hartihan Bitto (id:1333958)

金刚 Kong Kam (id:1397247)

钢特木尔 Gangtemuer (id:1407713)

邓泰和 Tai Wo Tang (id:1394346)

刘典 Dian Liu (id:1407709)

叶景文 King-Man Yip (id:1397259)

黄建新 Jianxin Huang (id:1019896)

吴亚康 Yakang Wu (id:1399849)

陆红实 Hongshi Lu (id:1399846)

孙立基 Christopher Sun Lap Key (id:1329997)

黄英华 Ying-Wah Wong (id:1301204)

许宏宇 Derek Hui (id:1275501)

王庆生 Ken Wong (id:1330605)

罗礼贤 Bruce Law (id:1289542)

安德鲁·达兹 Andrew Dasz (id:1364813)

罗义民 Norman Law (id:1316462)

◎简 介

明朝嘉靖末年,锦衣卫贺英(甄子丹 饰)奉命从天竺运回无价之宝“时空金球”,他一心为朝廷却不想遭到了兄弟的突袭。老大元龙(任达华 饰)带着聂虎(喻亢 饰)、萨獒(王宝强 饰)前来捉拿,为的是一宗针对贺英的冤案。兄弟四人搏斗之时突然地动山摇,巨大的雪崩淹没了他们。可是醒来后,贺英发现自己居然已经到了400年后的香港,对现代社会一窍不通的他偶遇了夜店咖小美(黄圣依 饰),闹出了不少笑话,但在小美的帮助下贺英学会了使用高科技产品,逐渐变成了都市型男。正在二人感情升华的时候,“锦衣卫三人组”也穿越到了现代并且继续执行自己的使命,与此同时不明真相的警方也在捉拿贺英这个“特异功能”人士,贺英遭遇到了400年来最大的挑战。

本片改编翻拍自1989年元彪、张曼玉、元华主演,霍耀良导演的影片《急冻奇侠》。是王宝强第一次演出武侠功夫片。

◎获奖情况 (共2项)

第6届金扫帚奖 (2015)

最令人失望男演员

└──甄子丹 (id:1025194)

第1届豆瓣电影年度榜单 (2014)

评分最低的华语电影(提名)

  1. 合集文件列表:

  2. 1.Iceman.2014.BluRay.1080p.2Audio.TrueHD.5.1.x265.10bit-ALT.mkv 13.42GB

  3. 2.Iceman.The.Time.Traveller.2018.BluRay.1080p.2Audio.TrueHD.5.1.x265.10bit-ALT.mkv 9.60GB


复制代码

  1. ##### MediaInfo ######

  2. General

  3. Unique ID : 250272666079014764573119026846313224674 (0xBC48C31EA486C8AF1FA63460339019E2)

  4. Complete name : Iceman.2014.BluRay.1080p.2Audio.TrueHD.5.1.x265.10bit-ALT.mkv

  5. Format : Matroska

  6. Format version : Version 4

  7. File size : 13.4 GiB

  8. Duration : 1 h 44 min

  9. Overall bit rate mode : Variable

  10. Overall bit rate : 18.4 Mb/s

  11. Encoded date : UTC 2020-03-04 01:39:34

  12. Writing application : mkvmerge v43.0.0 ('The Quartermaster') 64-bit

  13. Writing library : libebml v1.3.10 + libmatroska v1.5.2

  14. Video

  15. ID : 1

  16. Format : HEVC

  17. Format/Info : High Efficiency Video Coding

  18. Format profile : Main [email protected]@High

  19. Codec ID : V_MPEGH/ISO/HEVC

  20. Duration : 1 h 44 min

  21. Bit rate : 10.7 Mb/s

  22. Width : 1 920 pixels

  23. Height : 858 pixels

  24. Display aspect ratio : 2.25:1

  25. Frame rate mode : Constant

  26. Frame rate : 23.976 (24000/1001/53354) FPS

  27. Color space : YUV

  28. Chroma subsampling : 4:2:0

  29. Bit depth : 10 bits

  30. Bits/(Pixel*Frame) : 0.270

  31. Stream size : 7.77 GiB (58%)

  32. Title : HEVC, [email protected]@High, 24/1.001 fps @ 10677 kbps

  33. Writing library : x265 3.0_Au+4-dcbec33bfb0f:[Windows][GCC 8.2.1][64 bit] 10bit

  34. Encoding settings : cpuid=533541111039 / frame-threads=5 / numa-pools=44,44 / wpp / pmode / pme / no-psnr / no-ssim / log-level=2 / input-csp=1 / input-res=1920x858 / interlace=0 / total-frames=149928 / level-idc=51 / high-tier=1 / uhd-bd=0 / ref=5 / no-allow-non-conformance / no-repeat-headers / annexb / no-aud / no-hrd / info / hash=0 / no-temporal-layers / open-gop / min-keyint=24 / keyint=240 / gop-lookahead=0 / bframes=6 / b-adapt=2 / b-pyramid / bframe-bias=0 / rc-lookahead=40 / lookahead-slices=0 / NTMzNTQ=uuDQuD2mJt9fsCf / scenecut=40 / radl=0 / no-splice / no-intra-refresh / ctu=32 / min-cu-size=8 / no-rect / no-amp / max-tu-size=32 / tu-inter-depth=3 / tu-intra-depth=3 / limit-tu=4 / rdoq-level=2 / dynamic-rd=0.00 / no-ssim-rd / signhide / no-tskip / nr-intra=0 / nr-inter=0 / no-constrained-intra / no-strong-intra-smoothing / max-merge=4 / limit-refs=1 / limit-modes / me=3 / subme=4 / merange=25 / temporal-mvp / weightp / weightb / no-analyze-src-pics / deblock=-3:-3 / no-sao / no-sao-non-deblock / rd=6 / no-early-skip / rskip / no-fast-intra / no-tskip-fast / no-cu-lossless / b-intra / no-splitrd-skip / rdpenalty=0 / psy-rd=2.00 / psy-rdoq=1.00 / no-rd-refine / no-lossless / cbqpoffs=0 / crqpoffs=0 / rc=crf / crf=17.0 / qcomp=0.65 / qpstep=4 / stats-write=0 / stats-read=0 / vbv-maxrate=80000 / vbv-bufsize=80000 / vbv-init=0.9 / crf-max=0.0 / crf-min=0.0 / ipratio=1.40 / pbratio=1.30 / aq-mode=2 / aq-strength=0.85 / cutree / zone-count=0 / no-strict-cbr / qg-size=32 / no-rc-grain / qpmax=69 / qpmin=0 / no-const-vbv / sar=1 / overscan=0 / videoformat=5 / range=0 / colorprim=1 / transfer=1 / colormatrix=1 / chromaloc=0 / display-window=0 / max-cll=0,0 / min-luma=0 / max-luma=1023 / log2-max-poc-lsb=8 / vui-timing-info / vui-hrd-info / slices=1 / no-opt-qp-pps / no-opt-ref-list-length-pps / no-multi-pass-opt-rps / scenecut-bias=0.05 / no-opt-cu-delta-qp / no-aq-motion / no-hdr / no-hdr-opt / no-dhdr10-opt / no-idr-recovery-sei / analysis-reuse-level=5 / scale-factor=0 / refine-intra=0 / refine-inter=0 / refine-mv=0 / refine-ctu-distortion=0 / no-limit-sao / ctu-info=0 / no-lowpass-dct / refine-analysis-type=0 / copy-pic=1 / max-ausize-factor=1.0 / no-dynamic-refine / no-single-sei / no-hevc-aq / qp-adaptation-range=1.00

  35. Language : English

  36. Default : Yes

  37. Forced : No

  38. Color range : Limited

  39. Color primaries : BT.709

  40. Transfer characteristics : BT.709

  41. Matrix coefficients : BT.709

  42. Audio #1

  43. ID : 2

  44. Format : MLP FBA

  45. Format/Info : Meridian Lossless Packing FBA

  46. Commercial name : Dolby TrueHD

  47. Codec ID : A_TRUEHD

  48. Duration : 1 h 44 min

  49. Bit rate mode : Variable

  50. Bit rate : 3 108 kb/s

  51. Maximum bit rate : 5 556 kb/s

  52. Channel(s) : 6 channels

  53. Channel layout : L R C LFE Ls Rs

  54. Sampling rate : 96.0 kHz

  55. Frame rate : 1 200.000 FPS (80 SPF)

  56. Compression mode : Lossless

  57. Stream size : 2.26 GiB (17%)

  58. Title : Cantonese Dolby TrueHD Audio 5.1 @ 3109 kbps

  59. Language : Chinese

  60. Default : Yes

  61. Forced : No

  62. Audio #2

  63. ID : 3

  64. Format : AC-3

  65. Format/Info : Audio Coding 3

  66. Commercial name : Dolby Digital

  67. Codec ID : A_AC3

  68. Duration : 1 h 44 min

  69. Bit rate mode : Constant

  70. Bit rate : 640 kb/s

  71. Channel(s) : 6 channels

  72. Channel layout : L R C LFE Ls Rs

  73. Sampling rate : 48.0 kHz

  74. Frame rate : 31.250 FPS (1536 SPF)

  75. Compression mode : Lossy

  76. Stream size : 477 MiB (3%)

  77. Title : Cantonese Dolby Digital Audio 5.1 @ 640 kbps

  78. Language : Chinese

  79. Service kind : Complete Main

  80. Default : No

  81. Forced : No

  82. Audio #3

  83. ID : 4

  84. Format : MLP FBA

  85. Format/Info : Meridian Lossless Packing FBA

  86. Commercial name : Dolby TrueHD

  87. Codec ID : A_TRUEHD

  88. Duration : 1 h 44 min

  89. Bit rate mode : Variable

  90. Bit rate : 3 159 kb/s

  91. Maximum bit rate : 5 562 kb/s

  92. Channel(s) : 6 channels

  93. Channel layout : L R C LFE Ls Rs

  94. Sampling rate : 96.0 kHz

  95. Frame rate : 1 200.000 FPS (80 SPF)

  96. Compression mode : Lossless

  97. Stream size : 2.30 GiB (17%)

  98. Title : Mandarin Dolby TrueHD Audio 5.1 @ 3159 kbps

  99. Language : Chinese

  100. Default : No

  101. Forced : No

  102. Audio #4

  103. ID : 5

  104. Format : AC-3

  105. Format/Info : Audio Coding 3

  106. Commercial name : Dolby Digital

  107. Codec ID : A_AC3

  108. Duration : 1 h 44 min

  109. Bit rate mode : Constant

  110. Bit rate : 640 kb/s

  111. Channel(s) : 6 channels

  112. Channel layout : L R C LFE Ls Rs

  113. Sampling rate : 48.0 kHz

  114. Frame rate : 31.250 FPS (1536 SPF)

  115. Compression mode : Lossy

  116. Stream size : 477 MiB (3%)

  117. Title : Mandarin Dolby Digital Audio 5.1 @ 640 kbps

  118. Language : Chinese

  119. Service kind : Complete Main

  120. Default : No

  121. Forced : No

  122. Text #1

  123. ID : 6

  124. Format : PGS

  125. Codec ID : S_HDMV/PGS

  126. Codec ID/Info : Picture based subtitle format used on BDs/HD-DVDs

  127. Duration : 1 h 40 min

  128. Bit rate : 24.4 kb/s

  129. Count of elements : 2034

  130. Stream size : 17.5 MiB (0%)

  131. Title : Cht/SUP 原盘繁体

  132. Language : Chinese

  133. Default : No

  134. Forced : No

  135. Text #2

  136. ID : 7

  137. Format : PGS

  138. Codec ID : S_HDMV/PGS

  139. Codec ID/Info : Picture based subtitle format used on BDs/HD-DVDs

  140. Duration : 1 h 40 min

  141. Bit rate : 22.7 kb/s

  142. Count of elements : 2034

  143. Stream size : 16.2 MiB (0%)

  144. Title : Chs/SUP 原盘简体

  145. Language : Chinese

  146. Default : Yes

  147. Forced : No

  148. Text #3

  149. ID : 8

  150. Format : PGS

  151. Codec ID : S_HDMV/PGS

  152. Codec ID/Info : Picture based subtitle format used on BDs/HD-DVDs

  153. Duration : 1 h 40 min

  154. Bit rate : 28.2 kb/s

  155. Count of elements : 2098

  156. Stream size : 20.3 MiB (0%)

  157. Title : Eng/SUP

  158. Language : English

  159. Default : No

  160. Forced : No

  161. Menu

  162. 00:00:00.000 : en:第 01 章

  163. 00:04:42.449 : en:第 02 章

  164. 00:09:50.381 : en:第 03 章

  165. 00:14:33.539 : en:第 04 章

  166. 00:20:27.101 : en:第 05 章

  167. 00:24:54.743 : en:第 06 章

  168. 00:29:04.534 : en:第 07 章

  169. 00:33:48.860 : en:第 08 章

  170. 00:39:08.763 : en:第 09 章

  171. 00:43:02.789 : en:第 10 章

  172. 00:48:32.660 : en:第 11 章

  173. 00:53:54.189 : en:第 12 章

  174. 00:57:25.692 : en:第 13 章

  175. 01:01:27.100 : en:第 14 章

  176. 01:07:28.836 : en:第 15 章

  177. 01:10:39.444 : en:第 16 章

  178. 01:17:05.788 : en:第 17 章

  179. 01:20:45.049 : en:第 18 章

  180. 01:25:17.112 : en:第 19 章

  181. 01:36:18.398 : en:第 20 章


复制代码



文件下载


除非特别注明,本文『冰封侠[共2部合集][国粤英多音轨/简繁英字幕].Iceman.2014-2018.BluRay.1080p.2Audio.TrueHD.5.1.x265.10bit-ALT 23.02GB』来源于互联网机器人自动抓取,非本站原创。 浮游电影网不对本文拥有版权,如有侵犯,请联系邮箱:fuyouu#yandex.com[#换成@]投诉。我们会在15个工作日内删除。 但烦请转载时请标明出处:“本文转载于『浮游电影网』,原文地址:https://www.fuyouu.com/21165.html

评论吧骚年!

发表你的见解   

昵称*

E-mail*(建议输入,以便收到博主回复的提示邮件)

验证码*

您可以使用eMule或eMule Mod(Windows)、aMule(Win、Linux、Mac)等软件下载eD2k链接。。
eMule收藏集(.emulecollection)文件是您选中的所有链接的列表文件。eMule可以直接下载它们。
按住SHIFT键选择可以选中多个选择框。
可用文件名和大小选择器来选择文件。
文件名选择器帮您根据文件名称或后缀来选择文件。不分大小写。
符号使用:
和:空格( )、+
不包含:-
或:|
转义:一对英文引号("");
匹配开头:^
匹配结尾:$
例如:
选中所有名称中包含有“eMule”或“0.49c”字眼,但不包含有“exe”字眼的:emule|0.49c -exe
选中所有名称的开头是“eMule”,结尾是“0.49c”的:^emule 0.49c$
选中所有名称中带有“eMule 0.49c”的(必须是“eMule 0.49c”,中间没有别的字符,不能是“eMule fake 0.49c”),需要转义:"emule 0.49c"
大小选择器帮您根据文件大小选择文件。