当前位置: 首页 >> 欧美电影 >> 我唾弃你的坟墓[共4部合集][简繁英字幕].I.Spit.On.Your.Grave.1-4.2010-2019.BluRay.1080p.TrueHD.5.1.x265.10bit-ALT 26.0 >> 正文

我唾弃你的坟墓[共4部合集][简繁英字幕].I.Spit.On.Your.Grave.1-4.2010-2019.BluRay.1080p.TrueHD.5.1.x265.10bit-ALT 26.0

2022年04月06日 23:04:53     电影发布:来源于网络     电影分类:欧美电影     评论(0)    

我唾弃你的坟墓[共4部合集][简繁英字幕].I.Spit.On.Your.Grave.1 4.2010 2019.BluRay.1080p.TrueHD.5.1.x265.10bit ALT 26.0 恐怖 惊悚 欧美电影  第1张

◎译 名 我唾弃你的坟墓:复仇在我 / 我唾弃你的坟墓3 / I Spit on Your Grave 3

◎片 名 I Spit on Your Grave: Vengeance is Mine

◎年 代 2015

◎产 地 美国

◎类 别 惊悚 / 恐怖

◎语 言 英语

◎上映日期 2015-10-09(美国)

◎IMDb链接 https://www.imdb.com/title/tt4530884/

◎豆瓣评分 5.8/10 (7736人评价)

◎豆瓣链接 https://movie.douban.com/subject/26617314/

◎片 长 93分钟

◎演 员 莎拉·巴特勒 Sarah Butler (id:1216450)

詹妮弗·兰登 Jennifer Landon (id:1113149)

道格·麦克昂 Doug McKeon (id:1018188)

加布里埃尔·霍根 Gabriel Hogan (id:1323635)

哈莉·简·科扎克 Harley Jane Kozak (id:1103996)

米歇尔·赫德 Michelle Hurd (id:1105902)

拉塞尔·皮茨 Russell Pitts (id:1328905)

沃特尔·派瑞兹 Walter Perez (id:1009454)

凯伦·斯特拉斯曼 Karen Strassman (id:1339064)

梅格·赖希 Meg Raich (id:1251385)

亚当·邓内尔斯 Adam Dunnells (id:1203897)

艾丽莎·朱万 Alissa Juvan (id:1388527)

鲍比·里德 Bobby Reed (id:1140169)

阿拉·克罗特 Alla Korot (id:1110000)

杰夫·布兰森 Jeff Branson (id:1076495)

罗德尼·伊士曼 Rodney Eastman (id:1083815)

梅尔·扎奇 Meir Zarchi (id:1319484)

◎简 介

一晃眼数年过去,珍妮弗(莎拉·巴特勒 Sarah Butler 饰)却依然深陷之前的阴影之中无法自拔,惨不忍睹和回忆和梦魇纠缠着她,她唯有寻求心理医生的帮助。珍妮弗参加了一个女性互助小组,在那里,她结识了一名特立独行的新朋友马拉(Jennifer Landon 饰)。

马拉的一言一行影响和改变着珍妮弗,在互助小组中所听到的那一个个悲惨的故事亦深深震撼着珍妮弗。在马拉的带领之下,珍妮弗和她一起展开了针对男人的报复行动,起初只是威胁和恶作剧,之后却慢慢演变成为了彻底的暴力,在此期间,珍妮佛逐渐发现了内心里对于男性的仇恨。某日,马拉死了,死前受到了非人的折磨和虐待,珍妮弗怀疑这一切同她那身强体壮的前男友有关。

  1. 合集文件列表:

  2. 1.I.Spit.On.Your.Grave.2.2013.UNRATED.BluRay.1080p.TrueHD.5.1.x265.10bit-ALT.mkv 5.86GB

  3. 2.I.Spit.On.Your.Grave.2010.UNRATED.BluRay.1080p.TrueHD.5.1.x265.10bit-ALT.mkv 6.58GB

  4. 3.I.Spit.On.Your.Grave.Deja.Vu.2019.BluRay.1080p.DTS-HD.MA.5.1.x265.10bit-ALT.mkv 10.09GB

  5. 4.I.Spit.on.Your.Grave.Vengeance.is.Mine.2015.BluRay.1080p.TrueHD.5.1.x265.10bit-ALT.mkv 3.53GB


复制代码

  1. ##### MediaInfo ######

  2. General

  3. Unique ID : 224244133577680067870049904596277852315 (0xA8B3D96346005C20E59D9C013784F89B)

  4. Complete name : I.Spit.On.Your.Grave.2.2013.UNRATED.BluRay.1080p.TrueHD.5.1.x265.10bit-ALT.mkv

  5. Format : Matroska

  6. Format version : Version 4

  7. File size : 5.86 GiB

  8. Duration : 1 h 46 min

  9. Overall bit rate mode : Variable

  10. Overall bit rate : 7 895 kb/s

  11. Encoded date : UTC 2020-08-13 03:25:37

  12. Writing application : mkvmerge v49.0.0 ('Sick Of Losing Soulmates') 64-bit

  13. Writing library : libebml v1.4.0 + libmatroska v1.6.1

  14. Video

  15. ID : 1

  16. Format : HEVC

  17. Format/Info : High Efficiency Video Coding

  18. Format profile : Main [email protected]@High

  19. Codec ID : V_MPEGH/ISO/HEVC

  20. Duration : 1 h 46 min

  21. Bit rate : 4 126 kb/s

  22. Width : 1 920 pixels

  23. Height : 800 pixels

  24. Display aspect ratio : 2.40:1

  25. Frame rate mode : Constant

  26. Frame rate : 23.976 (24000/1001/53354) FPS

  27. Color space : YUV

  28. Chroma subsampling : 4:2:0

  29. Bit depth : 10 bits

  30. Bits/(Pixel*Frame) : 0.112

  31. Stream size : 3.06 GiB (52%)

  32. Title : HEVC, [email protected]@High, 24/1.001 fps @ 4125 kbps

  33. Writing library : x265 3.3+1-g396395b2b:[Windows][GCC 9.2.0][64 bit] 10bit

  34. Encoding settings : cpuid=533541111039 / frame-threads=4 / numa-pools=16 / wpp / pmode / pme / no-psnr / no-ssim / log-level=2 / input-csp=1 / input-res=1920x800 / interlace=0 / total-frames=152760 / level-idc=51 / high-tier=1 / uhd-bd=0 / ref=5 / no-allow-non-conformance / no-repeat-headers / annexb / no-aud / no-hrd / info / hash=0 / no-temporal-layers / open-gop / min-keyint=24 / keyint=240 / gop-lookahead=0 / bframes=6 / b-adapt=2 / b-pyramid / bframe-bias=0 / rc-lookahead=40 / lookahead-slices=0 / NTMzNTQ=uuDQuD2mJt9fsCf / scenecut=40 / hist-scenecut=0 / radl=0 / no-splice / no-intra-refresh / ctu=32 / min-cu-size=8 / no-rect / no-amp / max-tu-size=32 / tu-inter-depth=3 / tu-intra-depth=3 / limit-tu=4 / rdoq-level=2 / dynamic-rd=0.00 / no-ssim-rd / signhide / no-tskip / nr-intra=0 / nr-inter=0 / no-constrained-intra / no-strong-intra-smoothing / max-merge=4 / limit-refs=1 / limit-modes / me=3 / subme=4 / merange=25 / temporal-mvp / no-frame-dup / no-hme / weightp / weightb / no-analyze-src-pics / deblock=-3:-3 / no-sao / no-sao-non-deblock / rd=6 / selective-sao=0 / no-early-skip / rskip / no-fast-intra / no-tskip-fast / no-cu-lossless / b-intra / no-splitrd-skip / rdpenalty=0 / psy-rd=2.00 / psy-rdoq=1.00 / no-rd-refine / no-lossless / cbqpoffs=0 / crqpoffs=0 / rc=crf / crf=17.0 / qcomp=0.65 / qpstep=4 / stats-write=0 / stats-read=0 / vbv-maxrate=80000 / vbv-bufsize=80000 / vbv-init=0.9 / crf-max=0.0 / crf-min=0.0 / ipratio=1.40 / pbratio=1.30 / aq-mode=2 / aq-strength=0.85 / cutree / zone-count=0 / no-strict-cbr / qg-size=32 / no-rc-grain / qpmax=69 / qpmin=0 / no-const-vbv / sar=1 / overscan=0 / videoformat=5 / range=0 / colorprim=1 / transfer=1 / colormatrix=1 / chromaloc=0 / display-window=0 / cll=0,0 / min-luma=0 / max-luma=1023 / log2-max-poc-lsb=8 / vui-timing-info / vui-hrd-info / slices=1 / no-opt-qp-pps / no-opt-ref-list-length-pps / no-multi-pass-opt-rps / scenecut-bias=0.05 / hist-threshold=0.01 / no-opt-cu-delta-qp / no-aq-motion / no-hdr10 / no-hdr10-opt / no-dhdr10-opt / no-idr-recovery-sei / analysis-reuse-level=0 / analysis-save-reuse-level=0 / analysis-load-reuse-level=0 / scale-factor=0 / refine-intra=0 / refine-inter=0 / refine-mv=1 / refine-ctu-distortion=0 / no-limit-sao / ctu-info=0 / no-lowpass-dct / refine-analysis-type=0 / copy-pic=1 / max-ausize-factor=1.0 / no-dynamic-refine / no-single-sei / no-hevc-aq / no-svt / no-field / qp-adaptation-range=1.00 / no-scenecut-aware-qpconformance-window-offsets / right=0 / bottom=0 / NTMzNTQ=

  35. Language : English

  36. Default : Yes

  37. Forced : No

  38. Color range : Limited

  39. Color primaries : BT.709

  40. Transfer characteristics : BT.709

  41. Matrix coefficients : BT.709

  42. Audio #1

  43. ID : 2

  44. Format : MLP FBA

  45. Format/Info : Meridian Lossless Packing FBA

  46. Commercial name : Dolby TrueHD

  47. Codec ID : A_TRUEHD

  48. Duration : 1 h 46 min

  49. Bit rate mode : Variable

  50. Bit rate : 2 971 kb/s

  51. Maximum bit rate : 5 265 kb/s

  52. Channel(s) : 6 channels

  53. Channel layout : L R C LFE Ls Rs

  54. Sampling rate : 48.0 kHz

  55. Frame rate : 1 200.000 FPS (40 SPF)

  56. Compression mode : Lossless

  57. Stream size : 2.20 GiB (38%)

  58. Title : English Dolby TrueHD 5.1 @ 2971 kbps

  59. Language : English

  60. Default : Yes

  61. Forced : No

  62. Audio #2

  63. ID : 3

  64. Format : AC-3

  65. Format/Info : Audio Coding 3

  66. Commercial name : Dolby Digital

  67. Codec ID : A_AC3

  68. Duration : 1 h 46 min

  69. Bit rate mode : Constant

  70. Bit rate : 640 kb/s

  71. Channel(s) : 6 channels

  72. Channel layout : L R C LFE Ls Rs

  73. Sampling rate : 48.0 kHz

  74. Frame rate : 31.250 FPS (1536 SPF)

  75. Compression mode : Lossy

  76. Stream size : 486 MiB (8%)

  77. Title : English Dolby Digital Audio 5.1 @ 640 kbps

  78. Language : English

  79. Service kind : Complete Main

  80. Default : No

  81. Forced : No

  82. Text #1

  83. ID : 4

  84. Format : PGS

  85. Codec ID : S_HDMV/PGS

  86. Codec ID/Info : Picture based subtitle format used on BDs/HD-DVDs

  87. Duration : 1 h 43 min

  88. Bit rate : 23.8 kb/s

  89. Count of elements : 2021

  90. Stream size : 17.6 MiB (0%)

  91. Title : Eng/SUP

  92. Language : English

  93. Default : No

  94. Forced : No

  95. Text #2

  96. ID : 5

  97. Format : PGS

  98. Codec ID : S_HDMV/PGS

  99. Codec ID/Info : Picture based subtitle format used on BDs/HD-DVDs

  100. Duration : 1 h 39 min

  101. Bit rate : 12.6 kb/s

  102. Count of elements : 1675

  103. Stream size : 9.00 MiB (0%)

  104. Title : Chs/SUP 简体

  105. Language : Chinese

  106. Default : Yes

  107. Forced : No

  108. Text #3

  109. ID : 6

  110. Format : PGS

  111. Codec ID : S_HDMV/PGS

  112. Codec ID/Info : Picture based subtitle format used on BDs/HD-DVDs

  113. Duration : 1 h 39 min

  114. Bit rate : 13.2 kb/s

  115. Count of elements : 1675

  116. Stream size : 9.41 MiB (0%)

  117. Title : Cht/SUP 繁体

  118. Language : Chinese

  119. Default : No

  120. Forced : No

  121. Text #4

  122. ID : 7

  123. Format : PGS

  124. Codec ID : S_HDMV/PGS

  125. Codec ID/Info : Picture based subtitle format used on BDs/HD-DVDs

  126. Duration : 1 h 39 min

  127. Bit rate : 23.0 kb/s

  128. Count of elements : 1675

  129. Stream size : 16.4 MiB (0%)

  130. Title : Chs/SUP 简英双语

  131. Language : Chinese

  132. Default : No

  133. Forced : No

  134. Text #5

  135. ID : 8

  136. Format : PGS

  137. Codec ID : S_HDMV/PGS

  138. Codec ID/Info : Picture based subtitle format used on BDs/HD-DVDs

  139. Duration : 1 h 39 min

  140. Bit rate : 21.1 kb/s

  141. Count of elements : 1675

  142. Stream size : 15.1 MiB (0%)

  143. Title : Cht/SUP 繁英双语

  144. Language : Chinese

  145. Default : No

  146. Forced : No

  147. Menu

  148. 00:00:00.000 : en:第 01 章

  149. 00:07:11.056 : en:第 02 章

  150. 00:15:08.491 : en:第 03 章

  151. 00:24:16.455 : en:第 04 章

  152. 00:36:33.108 : en:第 05 章

  153. 00:46:44.844 : en:第 06 章

  154. 00:59:19.306 : en:第 07 章

  155. 01:11:52.683 : en:第 08 章

  156. 01:17:31.981 : en:第 09 章

  157. 01:23:12.112 : en:第 10 章

  158. 01:29:12.430 : en:第 11 章

  159. 01:42:08.205 : en:第 12 章


复制代码



文件下载


除非特别注明,本文『我唾弃你的坟墓[共4部合集][简繁英字幕].I.Spit.On.Your.Grave.1-4.2010-2019.BluRay.1080p.TrueHD.5.1.x265.10bit-ALT 26.0』来源于互联网机器人自动抓取,非本站原创。 浮游电影网不对本文拥有版权,如有侵犯,请联系邮箱:fuyouu#yandex.com[#换成@]投诉。我们会在15个工作日内删除。 但烦请转载时请标明出处:“本文转载于『浮游电影网』,原文地址:https://www.fuyouu.com/21164.html

评论吧骚年!

发表你的见解   

昵称*

E-mail*(建议输入,以便收到博主回复的提示邮件)

验证码*

您可以使用eMule或eMule Mod(Windows)、aMule(Win、Linux、Mac)等软件下载eD2k链接。。
eMule收藏集(.emulecollection)文件是您选中的所有链接的列表文件。eMule可以直接下载它们。
按住SHIFT键选择可以选中多个选择框。
可用文件名和大小选择器来选择文件。
文件名选择器帮您根据文件名称或后缀来选择文件。不分大小写。
符号使用:
和:空格( )、+
不包含:-
或:|
转义:一对英文引号("");
匹配开头:^
匹配结尾:$
例如:
选中所有名称中包含有“eMule”或“0.49c”字眼,但不包含有“exe”字眼的:emule|0.49c -exe
选中所有名称的开头是“eMule”,结尾是“0.49c”的:^emule 0.49c$
选中所有名称中带有“eMule 0.49c”的(必须是“eMule 0.49c”,中间没有别的字符,不能是“eMule fake 0.49c”),需要转义:"emule 0.49c"
大小选择器帮您根据文件大小选择文件。