当前位置: 首页 >> 欧美电影 >> 绿巨人浩克[共2部合集][繁英字幕].Hulk.2003-2008.BluRay.1080p.DTS-HD.MA5.1.x265.10bit-ALT 24.63GB >> 正文

绿巨人浩克[共2部合集][繁英字幕].Hulk.2003-2008.BluRay.1080p.DTS-HD.MA5.1.x265.10bit-ALT 24.63GB

2022年04月06日 23:03:30     电影发布:来源于网络     电影分类:欧美电影     评论(0)    

绿巨人浩克[共2部合集][繁英字幕].Hulk.2003 2008.BluRay.1080p.DTS HD.MA5.1.x265.10bit ALT 24.63GB 科幻 动作 剧情 欧美电影  第1张

◎译 名 绿巨人浩克 / 变形侠医(港) / 绿巨人 / The Hulk

◎片 名 Hulk

◎年 代 2003

◎产 地 美国

◎类 别 剧情 / 动作 / 科幻

◎语 言 英语 / 西班牙语

◎上映日期 2003-10-10(中国大陆) / 2003-06-20(美国)

◎IMDb链接 https://www.imdb.com/title/tt0286716/

◎豆瓣评分 6.8/10 (111624人评价)

◎豆瓣链接 https://movie.douban.com/subject/1307354/

◎片 长 138分钟

◎导 演 李安 Ang Lee (id:1054421)

◎编 剧 詹姆斯·夏慕斯 James Schamus (id:1050276)

约翰·特曼 John Turman (id:1321942)

迈克尔·弗朗斯 Michael France (id:1284080)

杰克·科比 Jack Kirby (id:1050183)

斯坦·李 Stan Lee (id:1013888)

◎演 员 艾瑞克·巴纳 Eric Bana (id:1016693)

詹妮弗·康纳利 Jennifer Connelly (id:1016673)

山姆·艾里奥特 Sam Elliott (id:1022599)

乔什·卢卡斯 Josh Lucas (id:1017919)

尼克·诺特 Nick Nolte (id:1006989)

保罗·克塞 Paul Kersey (id:1105335)

卡拉·布欧诺 Cara Buono (id:1074937)

托德·特森 Todd Tesen (id:1340267)

凯文·兰金 Kevin Rankin (id:1143727)

西利亚·维斯顿 Celia Weston (id:1161747)

迈克·埃尔文 Mike Erwin (id:1049837)

卢·弗里基诺 Lou Ferrigno (id:1055975)

斯坦·李 Stan Lee (id:1013888)

雷吉·戴维斯 Regi Davis (id:1390117)

克雷格·达蒙 Craig Damon (id:1076386)

杰弗里·斯科特 Geoffrey Scott (id:1146568)

雷吉娜·麦基·雷德翁 Regina McKee Redwing (id:1390118)

金大贤 Daniel Dae Kim (id:1022618)

达尼爱拉·库恩 Daniella Kuhn (id:1340348)

罗兰佐·卡伦德 Lorenzo Callender (id:1333211)

约翰·马拉菲 John Maraffi (id:1373406)

Jenn Gotzon Jenn Gotzon (id:1171792)

莱茵侬·雷-瑞恩 Rhiannon Leigh Wryn (id:1014299)

安迪·阿尼斯 Andy Arness (id:1014625)

克里克·B·R·沃勒尔 Kirk B.R. Woller (id:1163505)

David St. Pierre David St. Pierre (id:1298220)

迈克尔·帕帕约翰 Michael Papajohn (id:1040856)

卢·理查兹 Lou Richards (id:1143895)

柳泽伯尼 Boni Yanagisawa (id:1161122)

斯坦·李 Stan Lee (id:1013888)

詹姆斯·夏慕斯 James Schamus (id:1050276)

盖尔·安妮·赫德 Gale Anne Hurd (id:1040812)

拉瑞·弗兰科 Larry J. Franco (id:1000738)

戴维·沃马克 David Womark (id:1276397)

丹尼·艾夫曼 Danny Elfman (id:1019059)

弗雷德里克·埃尔梅斯 Frederick Elmes (id:1041793)

蒂姆·斯奎尔斯 Tim Squyres (id:1298208)

艾薇·考夫曼 Avy Kaufman (id:1288224)

谢丽尔·卡拉西克 Cheryl Carasik (id:1280048)

瑞克·海因里希斯 Rick Heinrichs (id:1286373)

约瑟夫·穆索 Joseph Musso (id:1445379)

约翰·德克斯特 John Dexter (id:1282341)

马利特·艾伦 Marit Allen (id:1051278)

Janice Alexander Janice Alexander (id:1276985)

杰克·加伯 Jake Garber (id:1098012)

Carolyn Elias Carolyn Elias (id:1089996)

Brad Wilder Brad Wilder (id:1166331)

戴维·沃马克 David Womark (id:1276397)

杰弗·海隆 Geoff Heron (id:1286513)

Michael Di Como Michael Di Como (id:1282350)

Aaron Ferguson Aaron Ferguson (id:1283576)

David Gainey David Gainey (id:1284396)

史蒂夫·高利 Steve Gawley (id:1284643)

亚历克斯·杰格尔 Alex Jaeger (id:1287564)

杰拉德·古施密特 Gerald Gutschmidt (id:1285687)

爱德华·赫希 Edward Hirsh (id:1286690)

杰·库珀 Jay Cooper (id:1281222)

Robbie Clot Robbie Clot (id:1280938)

Eric Wong Eric Wong (id:1167771)

格雷格·吉尔莫 Greg Gilmore (id:1192415)

吉姆·苏卡普 Jim Soukup (id:1193247)

Rick O'Connor Rick O'Connor (id:1197908)

杰克·梅缪德斯 Jake Maymudes (id:1210370)

Matthew W. Brucell Matthew W. Brucell (id:1214008)

Terrance Tornberg (id:1221376)

凯文·马泰尔 Kevin Martel (id:1307802)

萨姆·爱德华兹 Sam Edwards (id:1224117)

Jason Brackett Jason Brackett (id:1279138)

Colin Brady Colin Brady (id:1279154)

帕特里克·贾尔维斯 Patrick Jarvis (id:1287625)

Shawn Kelly Shawn Kelly (id:1288355)

Marshall Richard Krasser Marshall Richard Krasser (id:1288991)

行弘进 Susumu Yukuhiro (id:1303480)

弗兰克·格莱瓦特 Frank Gravatt (id:1304404)

Aaron McBride Aaron McBride (id:1304410)

Wilson Tang Wilson Tang (id:1304530)

布鲁斯·霍尔科姆 Bruce Holcomb (id:1304914)

斯科特·波恩 Scott Benza (id:1306387)

约书亚·王 Joshua Ong (id:1307041)

沙里·汉森 Shari Hanson (id:1307057)

Daniel Pearson Daniel Pearson (id:1307511)

Garson Yu Garson Yu (id:1301559)

David Weitzberg David Weitzberg (id:1300652)

托德·瓦兹里 Todd Vaziri (id:1299925)

Kimberly Lashbrook Kimberly Lashbrook (id:1289470)

大卫·马什 David Marsh (id:1291084)

布雷特·诺特卡特 Brett Northcutt (id:1293296)

洛尔恩·彼得森 Lorne Peterson (id:1294386)

Kevin Reuter Kevin Reuter (id:1295483)

Martin Rosenberg Martin Rosenberg (id:1296082)

Anthony Shafer Anthony Shafer (id:1297286)

Tom St. Amand Tom St. Amand (id:1298210)

杰夫·萨瑟兰 Jeff Sutherland (id:1298679)

Jamy Wheless Jamy Wheless (id:1309314)

米歇尔·莫塔 Michelle Motta (id:1128937)

丹尼斯·穆伦 Dennis Muren (id:1041635)

梅于尔·帕特尔 Mayur Patel (id:1137217)

Mark Moore Mark Moore (id:1133960)

布鲁斯·鲍威尔 Bruce Powell (id:1130151)

C. Michael Easton C. Michael Easton (id:1048745)

W. Regan McGee W. Regan McGee (id:1122807)

André Mazzone André Mazzone (id:1120399)

David Latour David Latour (id:1106428)

Tom Martinek Tom Martinek (id:1048885)

Robert Hoffmeister Robert Hoffmeister (id:1099300)

多恩·休布勒 Dorne Huebler (id:1052562)

Matt Bouchard Matt Bouchard (id:1063304)

埃里克·温基斯特 Erik Winquist (id:1015737)

丘增 Masi Oka (id:1013935)

萨姆·布里奇 Sam Breach (id:1077542)

M·扎卡里·谢尔曼 M. Zachary Sherman (id:1147125)

布兰科·格鲁契奇 Branko Grujcic (id:1222698)

P·凯文·斯科特 P. Kevin Scott (id:1146099)

Durant Schoon Durant Schoon (id:1145261)

Robert Ashe Jr. Robert Ashe Jr. (id:1021058)

Bill Gilman Bill Gilman (id:1039064)

Sarah Coatts Sarah Coatts (id:1163314)

◎简 介

冷战时期,布鲁斯·班纳(艾瑞克·巴纳 Eric Bana 饰)的父亲是美军的一位科学家,致力于研究通过基因改造让人类获得超强的能力,想以此为美军打造超级士兵。可是他的项目没有获得美军的支持,不能进行人体试验,疯狂的父亲为了完成试验就在刚出生的班纳身上进行基因试验。多年后,班纳成为了出色的科学家,专职为军方开发新型的高能炸弹。在一次例行的试验中,由于操作失误,班纳为了保护同事,受到了一场伽马射线的强力辐射。常人如果在这场射线爆炸下肯定必死无疑,可是班纳却活了下来。多年前,父亲在其身上做的试验也因这场核辐射生效。一旦班纳发怒时,就会诱发身体里的神秘力量,变为毫无意识的绿巨人,拥有超强的破坏力和反抗意识。因此,美国军方为了深入研究,开始围追堵截绿巨人……

  1. 合集文件列表:

  2. 1.Hulk.2003.BluRay.1080p.DTS-HD.MA5.1.x265.10bit-ALT.mkv 12.94GB

  3. 2.The.Incredible.Hulk.2008.BluRay.1080p.DTS-HD.MA5.1.x265.10bit-ALT.mkv 11.69GB


复制代码

  1. ##### MediaInfo ######

  2. General

  3. Unique ID : 255430921405400730832191653628278035898 (0xC02A34BE19CFA52B2DD5913552AD55BA)

  4. Complete name : Hulk.2003.BluRay.1080p.DTS-HD.MA5.1.x265.10bit-ALT.mkv

  5. Format : Matroska

  6. Format version : Version 4

  7. File size : 12.9 GiB

  8. Duration : 2 h 18 min

  9. Overall bit rate mode : Variable

  10. Overall bit rate : 13.4 Mb/s

  11. Encoded date : UTC 2021-03-08 08:49:17

  12. Writing application : mkvmerge v49.0.0 ('Sick Of Losing Soulmates') 64-bit

  13. Writing library : libebml v1.4.0 + libmatroska v1.6.1

  14. Video

  15. ID : 1

  16. Format : HEVC

  17. Format/Info : High Efficiency Video Coding

  18. Format profile : Main [email protected]@High

  19. Codec ID : V_MPEGH/ISO/HEVC

  20. Duration : 2 h 18 min

  21. Bit rate : 9 024 kb/s

  22. Width : 1 920 pixels

  23. Height : 1 040 pixels

  24. Display aspect ratio : 1.85:1

  25. Frame rate mode : Constant

  26. Frame rate : 23.976 (24000/1001/53354) FPS

  27. Color space : YUV

  28. Chroma subsampling : 4:2:0

  29. Bit depth : 10 bits

  30. Bits/(Pixel*Frame) : 0.188

  31. Stream size : 8.71 GiB (67%)

  32. Title : HEVC, [email protected]@High, 24/1.001 fps @ 9023 kbps

  33. Writing library : x265 3.4+14-gd419c7152:[Windows][GCC 10.2.0][64 bit] 10bit

  34. Encoding settings : cpuid=533541111039 / frame-threads=5 / numa-pools=44,44 / wpp / pmode / pme / no-psnr / no-ssim / log-level=2 / input-csp=1 / input-res=1920x1040 / interlace=0 / total-frames=198840 / level-idc=51 / high-tier=1 / uhd-bd=0 / ref=5 / no-allow-non-conformance / no-repeat-headers / annexb / no-aud / no-hrd / info / hash=0 / no-temporal-layers / open-gop / min-keyint=24 / keyint=240 / gop-lookahead=0 / bframes=6 / b-adapt=2 / b-pyramid / bframe-bias=0 / rc-lookahead=40 / lookahead-slices=0 / NTMzNTQ=uuDQuD2mJt9fsCf / scenecut=40 / hist-scenecut=0 / radl=0 / no-splice / no-intra-refresh / ctu=32 / min-cu-size=8 / no-rect / no-amp / max-tu-size=32 / tu-inter-depth=3 / tu-intra-depth=3 / limit-tu=4 / rdoq-level=2 / dynamic-rd=0.00 / no-ssim-rd / signhide / no-tskip / nr-intra=0 / nr-inter=0 / no-constrained-intra / no-strong-intra-smoothing / max-merge=4 / limit-refs=1 / limit-modes / me=3 / subme=4 / merange=25 / temporal-mvp / no-frame-dup / no-hme / weightp / weightb / no-analyze-src-pics / deblock=-3:-3 / no-sao / no-sao-non-deblock / rd=6 / selective-sao=0 / no-early-skip / rskip / no-fast-intra / no-tskip-fast / no-cu-lossless / b-intra / no-splitrd-skip / rdpenalty=0 / psy-rd=2.00 / psy-rdoq=1.00 / no-rd-refine / no-lossless / cbqpoffs=0 / crqpoffs=0 / rc=crf / crf=17.0 / qcomp=0.65 / qpstep=4 / stats-write=0 / stats-read=0 / vbv-maxrate=80000 / vbv-bufsize=80000 / vbv-init=0.9 / crf-max=0.0 / crf-min=0.0 / ipratio=1.40 / pbratio=1.30 / aq-mode=2 / aq-strength=0.85 / cutree / zone-count=0 / no-strict-cbr / qg-size=32 / no-rc-grain / qpmax=69 / qpmin=0 / no-const-vbv / sar=1 / overscan=0 / videoformat=5 / range=0 / colorprim=1 / transfer=1 / colormatrix=1 / chromaloc=0 / display-window=0 / cll=0,0 / min-luma=0 / max-luma=1023 / log2-max-poc-lsb=8 / vui-timing-info / vui-hrd-info / slices=1 / no-opt-qp-pps / no-opt-ref-list-length-pps / no-multi-pass-opt-rps / scenecut-bias=0.05 / hist-threshold=0.03 / no-opt-cu-delta-qp / no-aq-motion / no-hdr10 / no-hdr10-opt / no-dhdr10-opt / no-idr-recovery-sei / analysis-reuse-level=0 / analysis-save-reuse-level=0 / analysis-load-reuse-level=0 / scale-factor=0 / refine-intra=0 / refine-inter=0 / refine-mv=1 / refine-ctu-distortion=0 / no-limit-sao / ctu-info=0 / no-lowpass-dct / refine-analysis-type=0 / copy-pic=1 / max-ausize-factor=1.0 / no-dynamic-refine / no-single-sei / no-hevc-aq / no-svt / no-field / qp-adaptation-range=1.00 / no-scenecut-aware-qpconformance-window-offsets / right=0 / bottom=0 / NTMzNTQ= / decoder-max-rate=0

  35. Language : English

  36. Default : Yes

  37. Forced : No

  38. Color range : Limited

  39. Color primaries : BT.709

  40. Transfer characteristics : BT.709

  41. Matrix coefficients : BT.709

  42. Audio #1

  43. ID : 2

  44. Format : DTS XLL

  45. Format/Info : Digital Theater Systems

  46. Commercial name : DTS-HD Master Audio

  47. Codec ID : A_DTS

  48. Duration : 2 h 18 min

  49. Bit rate mode : Variable

  50. Bit rate : 4 108 kb/s

  51. Channel(s) : 6 channels

  52. Channel layout : C L R Ls Rs LFE

  53. Sampling rate : 48.0 kHz

  54. Frame rate : 93.750 FPS (512 SPF)

  55. Bit depth : 24 bits

  56. Compression mode : Lossless

  57. Stream size : 3.97 GiB (31%)

  58. Title : English DTS-HD Master Audio 5.1 @ 4108 kbps

  59. Language : English

  60. Default : Yes

  61. Forced : No

  62. Audio #2

  63. ID : 3

  64. Format : AC-3

  65. Format/Info : Audio Coding 3

  66. Commercial name : Dolby Digital

  67. Codec ID : A_AC3

  68. Duration : 2 h 18 min

  69. Bit rate mode : Constant

  70. Bit rate : 192 kb/s

  71. Channel(s) : 2 channels

  72. Channel layout : L R

  73. Sampling rate : 48.0 kHz

  74. Frame rate : 31.250 FPS (1536 SPF)

  75. Compression mode : Lossy

  76. Stream size : 190 MiB (1%)

  77. Title : English Dolby Digital Audio? 2.0 @ 192 kbps Commentary

  78. Language : English

  79. Service kind : Complete Main

  80. Default : No

  81. Forced : No

  82. Text #1

  83. ID : 4

  84. Format : PGS

  85. Codec ID : S_HDMV/PGS

  86. Codec ID/Info : Picture based subtitle format used on BDs/HD-DVDs

  87. Duration : 2 h 8 min

  88. Bit rate : 26.9 kb/s

  89. Count of elements : 2502

  90. Stream size : 24.7 MiB (0%)

  91. Title : Eng/SUP

  92. Language : English

  93. Default : No

  94. Forced : No

  95. Text #2

  96. ID : 5

  97. Format : PGS

  98. Codec ID : S_HDMV/PGS

  99. Codec ID/Info : Picture based subtitle format used on BDs/HD-DVDs

  100. Duration : 2 h 16 min

  101. Bit rate : 14.2 kb/s

  102. Count of elements : 1964

  103. Stream size : 13.9 MiB (0%)

  104. Title : Cht/SUP 原盘繁体

  105. Language : Chinese

  106. Default : Yes

  107. Forced : No

  108. Text #3

  109. ID : 6

  110. Format : PGS

  111. Codec ID : S_HDMV/PGS

  112. Codec ID/Info : Picture based subtitle format used on BDs/HD-DVDs

  113. Duration : 2 h 12 min

  114. Bit rate : 38.8 kb/s

  115. Count of elements : 2902

  116. Stream size : 36.8 MiB (0%)

  117. Title : Eng/SUP Commentary

  118. Language : English

  119. Default : No

  120. Forced : No

  121. Menu

  122. 00:00:00.000 : :第 01 章

  123. 00:04:20.302 : :第 02 章

  124. 00:11:21.681 : :第 03 章

  125. 00:13:55.293 : :第 04 章

  126. 00:17:24.377 : :第 05 章

  127. 00:20:12.962 : :第 06 章

  128. 00:22:50.661 : :第 07 章

  129. 00:29:17.005 : :第 08 章

  130. 00:32:37.956 : :第 09 章

  131. 00:37:03.138 : :第 10 章

  132. 00:39:24.946 : :第 11 章

  133. 00:45:12.960 : :第 12 章

  134. 00:49:01.147 : :第 13 章

  135. 00:54:11.290 : :第 14 章

  136. 00:57:40.123 : :第 15 章

  137. 00:59:53.340 : :第 16 章

  138. 01:11:14.937 : :第 17 章

  139. 01:16:10.733 : :第 18 章

  140. 01:19:14.416 : :第 19 章

  141. 01:24:54.715 : :第 20 章

  142. 01:27:20.944 : :第 21 章

  143. 01:32:04.519 : :第 22 章

  144. 01:36:14.686 : :第 23 章

  145. 01:41:42.346 : :第 24 章

  146. 01:47:10.758 : :第 25 章

  147. 01:49:49.082 : :第 26 章

  148. 01:55:37.055 : :第 27 章

  149. 02:02:55.910 : :第 28 章

  150. 02:07:34.313 : :第 29 章

  151. 02:08:31.370 : :第 30 章

  152. 02:11:07.359 : :第 31 章

  153. 02:12:41.620 : :第 32 章


复制代码



文件下载




除非特别注明,本文『绿巨人浩克[共2部合集][繁英字幕].Hulk.2003-2008.BluRay.1080p.DTS-HD.MA5.1.x265.10bit-ALT 24.63GB』来源于互联网机器人自动抓取,非本站原创。 浮游电影网不对本文拥有版权,如有侵犯,请联系邮箱:fuyouu#yandex.com[#换成@]投诉。我们会在15个工作日内删除。 但烦请转载时请标明出处:“本文转载于『浮游电影网』,原文地址:https://www.fuyouu.com/21163.html

评论吧骚年!

发表你的见解   

昵称*

E-mail*(建议输入,以便收到博主回复的提示邮件)

验证码*

您可以使用eMule或eMule Mod(Windows)、aMule(Win、Linux、Mac)等软件下载eD2k链接。。
eMule收藏集(.emulecollection)文件是您选中的所有链接的列表文件。eMule可以直接下载它们。
按住SHIFT键选择可以选中多个选择框。
可用文件名和大小选择器来选择文件。
文件名选择器帮您根据文件名称或后缀来选择文件。不分大小写。
符号使用:
和:空格( )、+
不包含:-
或:|
转义:一对英文引号("");
匹配开头:^
匹配结尾:$
例如:
选中所有名称中包含有“eMule”或“0.49c”字眼,但不包含有“exe”字眼的:emule|0.49c -exe
选中所有名称的开头是“eMule”,结尾是“0.49c”的:^emule 0.49c$
选中所有名称中带有“eMule 0.49c”的(必须是“eMule 0.49c”,中间没有别的字符,不能是“eMule fake 0.49c”),需要转义:"emule 0.49c"
大小选择器帮您根据文件大小选择文件。