当前位置: 首页 >> 海外电影 >> 高高在上[简体字幕].To.The.Top.2017.1080p.BluRay.DTS-HD.MA.5.1.x264-OPT 11.63GB >> 正文

高高在上[简体字幕].To.The.Top.2017.1080p.BluRay.DTS-HD.MA.5.1.x264-OPT 11.63GB

2022年04月06日 22:08:10     电影发布:来源于网络     电影分类:海外电影     评论(0)    

高高在上[简体字幕].To.The.Top.2017.1080p.BluRay.DTS HD.MA.5.1.x264 OPT 11.63GB 冒险 剧情 海外电影  第1张

◎译 名 高高在上 / 向着巅峰 / 极限登峰(台) / nOmber One / To the Top

◎片 名 Tout là-haut

◎年 代 2017

◎产 地 法国 / 印度

◎类 别 剧情 / 冒险

◎语 言 法语 / 英语

◎上映日期 2017-12-20(法国)

◎IMDb链接 https://www.imdb.com/title/tt6286668/

◎豆瓣评分 7.3/10 (76人评价)

◎豆瓣链接 https://movie.douban.com/subject/26716170/

◎片 长 99分钟(法国)

◎导 演 塞尔奇·哈赛纳维奇 Serge Hazanavicius (id:1317751)

◎编 剧 塞尔奇·哈赛纳维奇 Serge Hazanavicius (id:1317751)

艾格尼丝·卡芬 Agnès Caffin (id:1356150)

◎演 员 凯文·亚当斯 Kev Adams (id:1356429)

樊尚·埃尔巴兹 Vincent Elbaz (id:1005299)

梅兰妮·贝尔内尔 Mélanie Bernier (id:1014503)

贝热尼丝·贝乔 Bérénice Bejo (id:1009461)

马汀·雷克梅尔 Martijn Lakemeier (id:1236831)

内里·马尔科雷 Neri Marcorè (id:1125518)

威廉·霍普 William Hope (id:1323341)

塞尔奇·哈赛纳维奇 Serge Hazanavicius (id:1317751)

克里斯托弗·汤普森 Christopher Thompson (id:1299174)

马克·伯曼 Marc Berman (id:1362772)

◎简 介

史考特(凯文·亚当斯 饰)是一个年轻的天才滑雪高手,他有个梦想,想要完成无人尝试过的任务:攀登珠穆朗玛峰顶端,并从最高端持滑雪板下山!当他到达半路时,遇上了曾为滑雪冠军,现为高山导游的老手派崔克(文森艾巴 饰),两人的相遇,带来了彼此生命中最危险、最艰难、却也是最鼓动人心的终极挑战!

  1. ##### MediaInfo ######

  2. General

  3. Unique ID : 202563476368280718615023122901043577017 (0x98644E75525130C8A50805580CDD00B9)

  4. Complete name : To.The.Top.2017.1080p.BluRay.DTS-HD.MA.5.1.x264-OPT.mkv

  5. Format : Matroska

  6. Format version : Version 2

  7. File size : 11.6 GiB

  8. Duration : 1 h 38 min

  9. Overall bit rate mode : Variable

  10. Overall bit rate : 16.9 Mb/s

  11. Encoded date : UTC 2018-09-07 02:05:13

  12. Writing application : mkvmerge v8.5.2 ('Crosses') 32bit

  13. Writing library : libebml v1.3.3 + libmatroska v1.4.4

  14. Video

  15. ID : 1

  16. Format : AVC

  17. Format/Info : Advanced Video Codec

  18. Format profile : [email protected]

  19. Format settings : CABAC / 5 Ref Frames

  20. Format settings, CABAC : Yes

  21. Format settings, Reference frames : 5 frames

  22. Codec ID : V_MPEG4/ISO/AVC

  23. Duration : 1 h 38 min

  24. Bit rate : 13.2 Mb/s

  25. Width : 1 920 pixels

  26. Height : 804 pixels

  27. Display aspect ratio : 2.40:1

  28. Frame rate mode : Constant

  29. Frame rate : 24.000 FPS

  30. Color space : YUV

  31. Chroma subsampling : 4:2:0

  32. Bit depth : 8 bits

  33. Scan type : Progressive

  34. Bits/(Pixel*Frame) : 0.356

  35. Stream size : 9.09 GiB (78%)

  36. Writing library : x264 core 142 r2431+42 c69a006 tMod [[email protected]:2:0 X86_64]

  37. Encoding settings : cabac=1 / ref=5 / deblock=1:-3:-3 / analyse=0x3:0x113 / me=umh / subme=10 / psy=1 / fade_compensate=0.00 / psy_rd=1.00:0.05 / mixed_ref=1 / me_range=48 / chroma_me=1 / trellis=2 / 8x8dct=1 / cqm=0 / deadzone=21,11 / fast_pskip=0 / chroma_qp_offset=-2 / threads=48 / lookahead_threads=6 / sliced_threads=0 / nr=0 / decimate=1 / interlaced=0 / NTMzNTQ= / bluray_compat=0 / constrained_intra=0 / fgo=0 / bframes=8 / b_pyramid=2 / b_adapt=2 / b_bias=0 / direct=3 / weightb=1 / open_gop=0 / weightp=2 / keyint=250 / keyint_min=24 / NTMzNTQ=uuDQuD2mJt9fsCf / scenecut=40 / intra_refresh=0 / rc_lookahead=40 / rc=crf / mbtree=0 / crf=17.6000 / qcomp=0.60 / qpmin=0:0:0 / qpmax=69:69:69 / qpstep=4 / vbv_maxrate=40000 / vbv_bufsize=30000 / crf_max=0.0 / nal_hrd=none / filler=0 / NTMzNTQ=LmsMAP37EqsCpk / ip_ratio=1.40 / pb_ratio=1.30 / aq=3:0.80 / aq-sensitivity=10.00 / aq-factor=1.00:1.00:1.00 / aq2=0 / aq3=0

  38. Default : Yes

  39. Forced : No

  40. Color range : Limited

  41. Matrix coefficients : BT.709

  42. Audio

  43. ID : 2

  44. Format : DTS XLL

  45. Format/Info : Digital Theater Systems

  46. Commercial name : DTS-HD Master Audio

  47. Codec ID : A_DTS

  48. Duration : 1 h 38 min

  49. Bit rate mode : Variable

  50. Bit rate : 3 649 kb/s

  51. Channel(s) : 6 channels

  52. Channel layout : C L R Ls Rs LFE

  53. Sampling rate : 48.0 kHz

  54. Frame rate : 93.750 FPS (512 SPF)

  55. Bit depth : 24 bits

  56. Compression mode : Lossless

  57. Stream size : 2.52 GiB (22%)

  58. Language : French

  59. Default : Yes

  60. Forced : No

  61. Text #1

  62. ID : 3

  63. Format : PGS

  64. Muxing mode : zlib

  65. Codec ID : S_HDMV/PGS

  66. Codec ID/Info : Picture based subtitle format used on BDs/HD-DVDs

  67. Duration : 1 h 38 min

  68. Bit rate : 7 427 b/s

  69. Count of elements : 2118

  70. Stream size : 5.24 MiB (0%)

  71. Language : French

  72. Default : Yes

  73. Forced : No

  74. Text #2

  75. ID : 4

  76. Format : PGS

  77. Muxing mode : zlib

  78. Codec ID : S_HDMV/PGS

  79. Codec ID/Info : Picture based subtitle format used on BDs/HD-DVDs

  80. Duration : 1 h 28 min

  81. Bit rate : 10.7 kb/s

  82. Count of elements : 1960

  83. Stream size : 6.75 MiB (0%)

  84. Language : Chinese

  85. Default : No

  86. Forced : No

  87. Text #3

  88. ID : 5

  89. Format : PGS

  90. Muxing mode : zlib

  91. Codec ID : S_HDMV/PGS

  92. Codec ID/Info : Picture based subtitle format used on BDs/HD-DVDs

  93. Duration : 1 h 28 min

  94. Bit rate : 15.3 kb/s

  95. Count of elements : 1960

  96. Stream size : 9.66 MiB (0%)

  97. Language : Chinese

  98. Default : No

  99. Forced : No

  100. Menu

  101. 00:00:00.000 : en:00:00:00.000

  102. 00:09:08.792 : en:00:09:08.792

  103. 00:17:25.625 : en:00:17:25.625

  104. 00:26:39.583 : en:00:26:39.583

  105. 00:34:15.083 : en:00:34:15.083

  106. 00:41:50.625 : en:00:41:50.625

  107. 00:48:10.125 : en:00:48:10.125

  108. 00:54:25.458 : en:00:54:25.458

  109. 01:02:07.000 : en:01:02:07.000

  110. 01:11:06.542 : en:01:11:06.542

  111. 01:19:14.417 : en:01:19:14.417

  112. 01:25:51.667 : en:01:25:51.667


复制代码



文件下载


除非特别注明,本文『高高在上[简体字幕].To.The.Top.2017.1080p.BluRay.DTS-HD.MA.5.1.x264-OPT 11.63GB』来源于互联网机器人自动抓取,非本站原创。 浮游电影网不对本文拥有版权,如有侵犯,请联系邮箱:fuyouu#yandex.com[#换成@]投诉。我们会在15个工作日内删除。 但烦请转载时请标明出处:“本文转载于『浮游电影网』,原文地址:https://www.fuyouu.com/21161.html

评论吧骚年!

发表你的见解   

昵称*

E-mail*(建议输入,以便收到博主回复的提示邮件)

验证码*

您可以使用eMule或eMule Mod(Windows)、aMule(Win、Linux、Mac)等软件下载eD2k链接。。
eMule收藏集(.emulecollection)文件是您选中的所有链接的列表文件。eMule可以直接下载它们。
按住SHIFT键选择可以选中多个选择框。
可用文件名和大小选择器来选择文件。
文件名选择器帮您根据文件名称或后缀来选择文件。不分大小写。
符号使用:
和:空格( )、+
不包含:-
或:|
转义:一对英文引号("");
匹配开头:^
匹配结尾:$
例如:
选中所有名称中包含有“eMule”或“0.49c”字眼,但不包含有“exe”字眼的:emule|0.49c -exe
选中所有名称的开头是“eMule”,结尾是“0.49c”的:^emule 0.49c$
选中所有名称中带有“eMule 0.49c”的(必须是“eMule 0.49c”,中间没有别的字符,不能是“eMule fake 0.49c”),需要转义:"emule 0.49c"
大小选择器帮您根据文件大小选择文件。