当前位置: 首页 >> 海外电影 >> 迪多小子[中文字幕].Tito.E.Gli.Alieni.2017.1080p.WEB-DL.H264.AAC-NewWEB 2.59GB >> 正文

迪多小子[中文字幕].Tito.E.Gli.Alieni.2017.1080p.WEB-DL.H264.AAC-NewWEB 2.59GB

2022年04月06日 22:06:47     电影发布:来源于网络     电影分类:海外电影     评论(0)    

迪多小子[中文字幕].Tito.E.Gli.Alieni.2017.1080p.WEB DL.H264.AAC NewWEB 2.59GB 科幻 喜剧 海外电影  第1张

◎译 名 迪多小子 / 迪多和外星人

◎片 名 Tito e gli alieni

◎年 代 2017

◎产 地 意大利

◎类 别 喜剧 / 科幻

◎语 言 意大利语 / 英语

◎上映日期 2017-11-25(都灵电影节) / 2018-06-07(意大利)

◎IMDb链接 https://www.imdb.com/title/tt7677228/

◎豆瓣评分 6.8/10 (342人评价)

◎豆瓣链接 https://movie.douban.com/subject/30329151/

◎片 长 90分钟

◎导 演 保拉·兰迪 Paola Randi (id:1332536)

◎编 剧 保拉·兰迪 Paola Randi (id:1332536)

马西莫·高迪奥索 Massimo Gaudioso (id:1284619)

◎演 员 瓦莱里奥·马斯坦德雷亚 Valerio Mastandrea (id:1005301)

克蕾曼丝·波西 Clémence Poésy (id:1161250)

约翰·基奥 John Keogh (id:1329753)

Gianfelice Imparato Gianfelice Imparato (id:1344341)

亨特·特里梅恩 Hunter Tremayne (id:1393958)

塞巴斯蒂安·蒙特奇诺 Sebastian Montecino (id:1398439)

艾瑞克·马西普 èric Masip (id:1452451)

◎简 介

故事发生在内达华的茫茫沙漠之中,教授(瓦莱里奥·马斯坦德雷亚 Valerio Mastandrea 饰)孤身一人驻扎在大名鼎鼎的51区,每日醉心于自己的研究之中,早年间,教授的妻子去世了,而教授如今如此痴迷于探索宇宙,也只是为了能够再次听到妻子的声音而已。然而,教授宁静的生活却屡屡被名为史黛拉(克蕾曼丝·波西 Clémence Poésy 饰)的女人给搅乱,史黛拉是一名婚礼策划,而她服务的对象是那些相信外星人存在的情侣们。

一天,教授收到了一个意料之外的邮包,他的侄子迪多和侄女安妮塔即将前来拜访他。安妮塔是一个十六岁的姑娘,唯一的梦想就是能够和雷迪嘎嘎一起开派对,而七岁的迪多,他的脑袋里藏着更多匪夷所思的主意。

  1. ##### MediaInfo ######

  2. General

  3. Complete name : Tito E Gli Alieni 2017 1080p WEB-DL H264 AAC-NewWEB.mp4

  4. Format : MPEG-4

  5. Format profile : Base Media

  6. Codec ID : isom (isom/iso2/avc1/mp41)

  7. File size : 2.59 GiB

  8. Duration : 1 h 32 min

  9. Overall bit rate : 3 993 kb/s

  10. Movie name : 迪多小子

  11. Writing application : Lavf58.32.104

  12. Cover : Yes


  13. Video

  14. ID : 1

  15. Format : AVC

  16. Format/Info : Advanced Video Codec

  17. Format profile : [email protected]

  18. Format settings : CABAC / 4 Ref Frames

  19. Format settings, CABAC : Yes

  20. Format settings, Reference frames : 4 frames

  21. Codec ID : avc1

  22. Codec ID/Info : Advanced Video Coding

  23. Duration : 1 h 32 min

  24. Bit rate : 3 794 kb/s

  25. Width : 1 920 pixels

  26. Height : 1 040 pixels

  27. Display aspect ratio : 1.85:1

  28. Frame rate mode : Variable

  29. Frame rate : 24.000 FPS

  30. Minimum frame rate : 23.810 FPS

  31. Maximum frame rate : 24.390 FPS

  32. Color space : YUV

  33. Chroma subsampling : 4:2:0

  34. Bit depth : 8 bits

  35. Scan type : Progressive

  36. Bits/(Pixel*Frame) : 0.079

  37. Stream size : 2.46 GiB (95%)

  38. Writing library : BiliBili H264 Encoder v1.0

  39. Color range : Limited

  40. Color primaries : BT.709

  41. Transfer characteristics : BT.709

  42. Matrix coefficients : BT.709

  43. Codec configuration box : avcC


  44. Audio

  45. ID : 2

  46. Format : AAC LC

  47. Format/Info : Advanced Audio Codec Low Complexity

  48. Codec ID : mp4a-40-2

  49. Duration : 1 h 32 min

  50. Bit rate mode : Constant

  51. Bit rate : 192 kb/s

  52. Channel(s) : 2 channels

  53. Channel layout : L R

  54. Sampling rate : 48.0 kHz

  55. Frame rate : 46.875 FPS (1024 SPF)

  56. Compression mode : Lossy

  57. Stream size : 127 MiB (5%)

  58. Default : Yes

  59. Alternate group : 1


文件下载


除非特别注明,本文『迪多小子[中文字幕].Tito.E.Gli.Alieni.2017.1080p.WEB-DL.H264.AAC-NewWEB 2.59GB』来源于互联网机器人自动抓取,非本站原创。 浮游电影网不对本文拥有版权,如有侵犯,请联系邮箱:fuyouu#yandex.com[#换成@]投诉。我们会在15个工作日内删除。 但烦请转载时请标明出处:“本文转载于『浮游电影网』,原文地址:https://www.fuyouu.com/21160.html

评论吧骚年!

发表你的见解   

昵称*

E-mail*(建议输入,以便收到博主回复的提示邮件)

验证码*

您可以使用eMule或eMule Mod(Windows)、aMule(Win、Linux、Mac)等软件下载eD2k链接。。
eMule收藏集(.emulecollection)文件是您选中的所有链接的列表文件。eMule可以直接下载它们。
按住SHIFT键选择可以选中多个选择框。
可用文件名和大小选择器来选择文件。
文件名选择器帮您根据文件名称或后缀来选择文件。不分大小写。
符号使用:
和:空格( )、+
不包含:-
或:|
转义:一对英文引号("");
匹配开头:^
匹配结尾:$
例如:
选中所有名称中包含有“eMule”或“0.49c”字眼,但不包含有“exe”字眼的:emule|0.49c -exe
选中所有名称的开头是“eMule”,结尾是“0.49c”的:^emule 0.49c$
选中所有名称中带有“eMule 0.49c”的(必须是“eMule 0.49c”,中间没有别的字符,不能是“eMule fake 0.49c”),需要转义:"emule 0.49c"
大小选择器帮您根据文件大小选择文件。