当前位置: 首页 >> 海外电影 >> 暴劫梨花[国英多音轨/简繁英字幕].The.Accused.1988.BluRay.1080p.2Audio.TrueHD.5.1.x265.10bit-ALT 13.88GB >> 正文

暴劫梨花[国英多音轨/简繁英字幕].The.Accused.1988.BluRay.1080p.2Audio.TrueHD.5.1.x265.10bit-ALT 13.88GB

2022年04月06日 21:59:46     电影发布:来源于网络     电影分类:海外电影     评论(0)    

暴劫梨花[国英多音轨/简繁英字幕].The.Accused.1988.BluRay.1080p.2Audio.TrueHD.5.1.x265.10bit ALT 13.88GB 犯罪 剧情 海外电影  第1张

◎译 名 暴劫梨花 / 控诉 / 被告

◎片 名 The Accused

◎年 代 1988

◎产 地 加拿大 / 美国

◎类 别 剧情 / 犯罪

◎语 言 英语

◎上映日期 1988-10-14

◎IMDb链接 https://www.imdb.com/title/tt0094608/

◎豆瓣评分 7.9/10 (6727人评价)

◎豆瓣链接 https://movie.douban.com/subject/1291867/

◎片 长 111 分钟

◎导 演 乔纳森·卡普兰 Jonathan Kaplan (id:1036960)

◎编 剧 汤姆·托波尔 Tom Topor (id:1299389)

◎演 员 朱迪·福斯特 Jodie Foster (id:1031222)

凯莉·麦吉利斯 Kelly McGillis (id:1010593)

乔-安妮·史密斯-奥杰尔 Jo-Anne Smith-Ojeil (id:1297953)

保罗·埃瑟林顿 Paul Etherington (id:1283329)

◎简 介

一次意外中,莎拉(朱迪·福斯特 Jodie Foster 饰)在酒吧被人强暴,在一旁围观的男人们非但没有出手制止这可怕的暴行,反而幸灾乐祸的加入了其中。事后,身心都受到了巨大创伤的莎拉将这些可恶的男人告上了法庭,没想到社会舆论却反过来指责她的放荡和品行不端。凯瑟琳(凯莉·麦吉利斯 Kelly McGillis 饰)是负责为莎拉辩护的检察官,身为女人,她对莎拉的不幸遭遇有着更深的理解和同情。

审判的结果公布了,犯下罪行的男人们只被判了九个月的有期徒刑,本用来惩奸除恶的法律最后却沦为了犯罪者的保护伞,愤怒的凯瑟琳决不能坐视不管。在凯瑟琳和莎拉的不懈努力下,恶人终于受到了应有的惩罚,两个女人通过她们的行动,挽回了身为女人的勇气和尊严。

◎获奖情况 (共2项)

第61届奥斯卡金像奖 (1989)

最佳女主角

└──朱迪·福斯特 (id:1031222)

第39届柏林国际电影节 (1989)

金熊奖 最佳影片(提名)

└──乔纳森·卡普兰 (id:1036960)

  1. ##### MediaInfo ######

  2. General

  3. Unique ID : 20856260135859719162296556371582786149 (0xFB0C5040139BC14CACFFAF1A3BA1A65)

  4. Complete name : The.Accused.1988.BluRay.1080p.2Audio.TrueHD.5.1.x265.10bit-ALT.mkv

  5. Format : Matroska

  6. Format version : Version 4

  7. File size : 13.9 GiB

  8. Duration : 1 h 50 min

  9. Overall bit rate mode : Variable

  10. Overall bit rate : 18.0 Mb/s

  11. Encoded date : UTC 2022-04-05 11:09:49

  12. Writing application : mkvmerge v49.0.0 ('Sick Of Losing Soulmates') 64-bit

  13. Writing library : libebml v1.4.0 + libmatroska v1.6.1

  14. Video

  15. ID : 1

  16. Format : HEVC

  17. Format/Info : High Efficiency Video Coding

  18. Format profile : Main [email protected]@High

  19. Codec ID : V_MPEGH/ISO/HEVC

  20. Duration : 1 h 50 min

  21. Bit rate : 13.7 Mb/s

  22. Width : 1 920 pixels

  23. Height : 1 080 pixels

  24. Display aspect ratio : 16:9

  25. Frame rate mode : Constant

  26. Frame rate : 23.976 (24000/1001/53354) FPS

  27. Color space : YUV

  28. Chroma subsampling : 4:2:0

  29. Bit depth : 10 bits

  30. Bits/(Pixel*Frame) : 0.276

  31. Stream size : 10.6 GiB (76%)

  32. Title : HEVC, [email protected]@High, 24/1.001 fps @ 13725 kbps

  33. Writing library : x265 3.5+36-1f2c8da77:[Windows][GCC 11.2.0][64 bit] 10bit

  34. Encoding settings : cpuid=533541111039 / frame-threads=4 / numa-pools=16 / wpp / pmode / pme / no-psnr / no-ssim / log-level=2 / input-csp=1 / input-res=1920x1080 / interlace=0 / total-frames=158961 / level-idc=51 / high-tier=1 / uhd-bd=0 / ref=5 / no-allow-non-conformance / no-repeat-headers / annexb / no-aud / no-eob / no-eos / no-hrd / info / hash=0 / no-temporal-layers / open-gop / min-keyint=24 / keyint=240 / gop-lookahead=0 / bframes=6 / b-adapt=2 / b-pyramid / bframe-bias=0 / rc-lookahead=40 / lookahead-slices=0 / NTMzNTQ=uuDQuD2mJt9fsCf / scenecut=40 / no-hist-scenecut / radl=0 / no-splice / no-intra-refresh / ctu=32 / min-cu-size=8 / no-rect / no-amp / max-tu-size=32 / tu-inter-depth=3 / tu-intra-depth=3 / limit-tu=4 / rdoq-level=2 / dynamic-rd=0.00 / no-ssim-rd / signhide / no-tskip / nr-intra=0 / nr-inter=0 / no-constrained-intra / no-strong-intra-smoothing / max-merge=4 / limit-refs=1 / limit-modes / me=3 / subme=4 / merange=25 / temporal-mvp / no-frame-dup / no-hme / weightp / weightb / no-analyze-src-pics / deblock=-3:-3 / no-sao / no-sao-non-deblock / rd=6 / selective-sao=0 / no-early-skip / rskip / no-fast-intra / no-tskip-fast / no-cu-lossless / b-intra / no-splitrd-skip / rdpenalty=0 / psy-rd=2.00 / psy-rdoq=1.00 / no-rd-refine / no-lossless / cbqpoffs=0 / crqpoffs=0 / rc=crf / crf=22.5 / qcomp=0.65 / qpstep=4 / stats-write=0 / stats-read=0 / vbv-maxrate=80000 / vbv-bufsize=80000 / vbv-init=0.9 / min-vbv-fullness=50.0 / max-vbv-fullness=80.0 / crf-max=0.0 / crf-min=0.0 / ipratio=1.40 / pbratio=1.30 / aq-mode=2 / aq-strength=0.85 / cutree / zone-count=0 / no-strict-cbr / qg-size=32 / no-rc-grain / qpmax=69 / qpmin=0 / no-const-vbv / sar=1 / overscan=0 / videoformat=5 / range=0 / colorprim=1 / transfer=1 / colormatrix=1 / chromaloc=0 / display-window=0 / cll=0,0 / min-luma=0 / max-luma=1023 / log2-max-poc-lsb=8 / vui-timing-info / vui-hrd-info / slices=1 / no-opt-qp-pps / no-opt-ref-list-length-pps / no-multi-pass-opt-rps / scenecut-bias=0.05 / hist-threshold=0.03 / no-opt-cu-delta-qp / no-aq-motion / no-hdr10 / no-hdr10-opt / no-dhdr10-opt / no-idr-recovery-sei / analysis-reuse-level=0 / analysis-save-reuse-level=0 / analysis-load-reuse-level=0 / scale-factor=0 / refine-intra=0 / refine-inter=0 / refine-mv=1 / refine-ctu-distortion=0 / no-limit-sao / ctu-info=0 / no-lowpass-dct / refine-analysis-type=0 / copy-pic=1 / max-ausize-factor=1.0 / no-dynamic-refine / no-single-sei / no-hevc-aq / no-svt / no-field / qp-adaptation-range=1.00 / scenecut-aware-qp=0conformance-window-offsets / right=0 / bottom=0 / NTMzNTQ= / decoder-max-rate=0 / no-vbv-live-multi-pass

  35. Language : English

  36. Default : Yes

  37. Forced : No

  38. Color range : Limited

  39. Color primaries : BT.709

  40. Transfer characteristics : BT.709

  41. Matrix coefficients : BT.709

  42. Audio #1

  43. ID : 2

  44. Format : MLP FBA

  45. Format/Info : Meridian Lossless Packing FBA

  46. Commercial name : Dolby TrueHD

  47. Codec ID : A_TRUEHD

  48. Duration : 1 h 50 min

  49. Bit rate mode : Variable

  50. Bit rate : 3 226 kb/s

  51. Maximum bit rate : 4 497 kb/s

  52. Channel(s) : 6 channels

  53. Channel layout : L R C LFE Ls Rs

  54. Sampling rate : 48.0 kHz

  55. Frame rate : 1 200.000 FPS (40 SPF)

  56. Compression mode : Lossless

  57. Stream size : 2.49 GiB (18%)

  58. Title : English Dolby TrueHD 5.1 @ 3866 kbps

  59. Language : English

  60. Default : Yes

  61. Forced : No

  62. Audio #2

  63. ID : 3

  64. Format : AC-3

  65. Format/Info : Audio Coding 3

  66. Commercial name : Dolby Digital

  67. Codec ID : A_AC3

  68. Duration : 1 h 50 min

  69. Bit rate mode : Constant

  70. Bit rate : 640 kb/s

  71. Channel(s) : 6 channels

  72. Channel layout : L R C LFE Ls Rs

  73. Sampling rate : 48.0 kHz

  74. Frame rate : 31.250 FPS (1536 SPF)

  75. Compression mode : Lossy

  76. Stream size : 506 MiB (4%)

  77. Title : English Dolby Digital Audio 5.1 @ 640 kbps

  78. Language : English

  79. Service kind : Complete Main

  80. Default : No

  81. Forced : No

  82. Audio #3

  83. ID : 4

  84. Format : AC-3

  85. Format/Info : Audio Coding 3

  86. Commercial name : Dolby Digital

  87. Codec ID : A_AC3

  88. Duration : 1 h 50 min

  89. Bit rate mode : Constant

  90. Bit rate : 192 kb/s

  91. Channel(s) : 2 channels

  92. Channel layout : L R

  93. Sampling rate : 48.0 kHz

  94. Frame rate : 31.250 FPS (1536 SPF)

  95. Compression mode : Lossy

  96. Stream size : 152 MiB (1%)

  97. Title : Mandarin Dolby Digital Audio 2.0 @ 192 kbps

  98. Language : English

  99. Service kind : Complete Main

  100. Default : No

  101. Forced : No

  102. Text #1

  103. ID : 5

  104. Format : PGS

  105. Codec ID : S_HDMV/PGS

  106. Codec ID/Info : Picture based subtitle format used on BDs/HD-DVDs

  107. Duration : 1 h 44 min

  108. Bit rate : 39.5 kb/s

  109. Count of elements : 2396

  110. Stream size : 29.5 MiB (0%)

  111. Title : Eng/SUP

  112. Language : English

  113. Default : No

  114. Forced : No

  115. Text #2

  116. ID : 6

  117. Format : PGS

  118. Codec ID : S_HDMV/PGS

  119. Codec ID/Info : Picture based subtitle format used on BDs/HD-DVDs

  120. Duration : 1 h 44 min

  121. Bit rate : 50.2 kb/s

  122. Count of elements : 3140

  123. Stream size : 37.5 MiB (0%)

  124. Title : Eng/SUP SDH

  125. Language : English

  126. Default : No

  127. Forced : No

  128. Text #3

  129. ID : 7

  130. Format : PGS

  131. Codec ID : S_HDMV/PGS

  132. Codec ID/Info : Picture based subtitle format used on BDs/HD-DVDs

  133. Duration : 1 h 46 min

  134. Bit rate : 25.5 kb/s

  135. Count of elements : 2884

  136. Stream size : 19.4 MiB (0%)

  137. Title : Chs/SUP 简体

  138. Language : Chinese

  139. Default : Yes

  140. Forced : No

  141. Text #4

  142. ID : 8

  143. Format : PGS

  144. Codec ID : S_HDMV/PGS

  145. Codec ID/Info : Picture based subtitle format used on BDs/HD-DVDs

  146. Duration : 1 h 46 min

  147. Bit rate : 26.7 kb/s

  148. Count of elements : 2884

  149. Stream size : 20.3 MiB (0%)

  150. Title : Cht/SUP 繁体

  151. Language : Chinese

  152. Default : No

  153. Forced : No

  154. Menu

  155. 00:00:00.000 : en:第 01 章

  156. 00:03:00.764 : en:第 02 章

  157. 00:15:34.308 : en:第 03 章

  158. 00:26:38.055 : en:第 04 章

  159. 00:32:07.342 : en:第 05 章

  160. 00:34:54.592 : en:第 06 章

  161. 00:42:16.701 : en:第 07 章

  162. 00:49:25.254 : en:第 08 章

  163. 00:55:52.224 : en:第 09 章

  164. 01:01:48.914 : en:第 10 章

  165. 01:14:47.274 : en:第 11 章

  166. 01:33:31.981 : en:第 12 章

  167. 01:41:27.707 : en:第 13 章

  168. 01:43:40.840 : en:第 14 章


复制代码



文件下载


除非特别注明,本文『暴劫梨花[国英多音轨/简繁英字幕].The.Accused.1988.BluRay.1080p.2Audio.TrueHD.5.1.x265.10bit-ALT 13.88GB』来源于互联网机器人自动抓取,非本站原创。 浮游电影网不对本文拥有版权,如有侵犯,请联系邮箱:fuyouu#yandex.com[#换成@]投诉。我们会在15个工作日内删除。 但烦请转载时请标明出处:“本文转载于『浮游电影网』,原文地址:https://www.fuyouu.com/21158.html

评论吧骚年!

发表你的见解   

昵称*

E-mail*(建议输入,以便收到博主回复的提示邮件)

验证码*

您可以使用eMule或eMule Mod(Windows)、aMule(Win、Linux、Mac)等软件下载eD2k链接。。
eMule收藏集(.emulecollection)文件是您选中的所有链接的列表文件。eMule可以直接下载它们。
按住SHIFT键选择可以选中多个选择框。
可用文件名和大小选择器来选择文件。
文件名选择器帮您根据文件名称或后缀来选择文件。不分大小写。
符号使用:
和:空格( )、+
不包含:-
或:|
转义:一对英文引号("");
匹配开头:^
匹配结尾:$
例如:
选中所有名称中包含有“eMule”或“0.49c”字眼,但不包含有“exe”字眼的:emule|0.49c -exe
选中所有名称的开头是“eMule”,结尾是“0.49c”的:^emule 0.49c$
选中所有名称中带有“eMule 0.49c”的(必须是“eMule 0.49c”,中间没有别的字符,不能是“eMule fake 0.49c”),需要转义:"emule 0.49c"
大小选择器帮您根据文件大小选择文件。