当前位置: 首页 >> 海外电影 >> 凯撒密令[中文字幕].The.Final.Inquiry.2006.1080p.WEB-DL.H264.AAC-NewWEB 3.13GB >> 正文

凯撒密令[中文字幕].The.Final.Inquiry.2006.1080p.WEB-DL.H264.AAC-NewWEB 3.13GB

2022年04月06日 21:58:41     电影发布:来源于网络     电影分类:海外电影     评论(0)    

凯撒密令[中文字幕].The.Final.Inquiry.2006.1080p.WEB DL.H264.AAC NewWEB 3.13GB 历史 悬疑 冒险 剧情 海外电影  第1张

◎译 名 凯撒密令 / 最终调查 / 关于耶稣的终极调查 / The Final Inquiry

◎片 名 L'inchiesta

◎年 代 2006

◎产 地 意大利 / 西班牙

◎类 别 剧情 / 悬疑 / 历史 / 冒险

◎语 言 英语 / 意大利语

◎上映日期 2006-12-13

◎IMDb链接 https://www.imdb.com/title/tt0491720/

◎豆瓣评分 6.4/10 (124人评价)

◎豆瓣链接 https://movie.douban.com/subject/2979549/

◎片 长 112分钟

◎导 演 朱利叶斯·贝斯 Giulio Base (id:1037284)

◎编 剧 苏索·切基·达米科 Suso Cecchi d'Amico (id:1012716)

恩尼奥·弗拉亚诺 Ennio Flaiano (id:1033427)

安德烈亚·波尔波拉蒂 Andrea Porporati (id:1294862)

◎演 员 达尼埃莱·利奥蒂 Daniele Liotti (id:1327035)

杜夫·龙格尔 Dolph Lundgren (id:1040508)

莫妮卡·克鲁斯 Mónica Cruz (id:1032257)

克里斯多·夏帕夫 Hristo Shopov (id:1147171)

克里斯托·日夫科夫 Christo Jivkov (id:1168346)

奥内拉·穆蒂 Ornella Muti (id:1032086)

F·默里·亚伯拉罕 F. Murray Abraham (id:1055073)

马克斯·冯·叙多夫 Max von Sydow (id:1002675)

安娜·卡纳基斯 Anna Kanakis (id:1005792)

恩里克·洛维索 Enrico Lo Verso (id:1014293)

玛丽娅·皮娅·卡尔佐尼 Maria Pia Calzone (id:1343065)

Vincenzo Bocciarelli Vincenzo Bocciarelli (id:1177244)

希罗·埃斯珀斯托 Ciro Esposito (id:1042398)

费尔南多·古林·库弗 Fernando Guillén Cuervo (id:1032580)

Ubaldo Lo Presti Ubaldo Lo Presti (id:1325960)

Luigi Di Fiore Luigi Di Fiore (id:1080710)

Roberto Pedicini Roberto Pedicini (id:1126816)

弗朗西丝卡·德·萨维奥 Francesca De Sapio (id:1365442)

Gaetano Aronica Gaetano Aronica (id:1446058)

Eric Bassanesi Eric Bassanesi (id:1065011)

伊曼纽拉·庞扎诺 Emanuela Ponzano (id:1342209)

马西莫·萨尔基耶利 Massimo Sarchielli (id:1002970)

Juan Borrell Juan Borrell (id:1279019)

朱利亚诺·杰玛 Giuliano Gemma (id:1050132)

朱利叶斯·贝斯 Giulio Base (id:1037284)

Gianfranco Pierantoni Gianfranco Pierantoni (id:1043152)

约翰·汤普森 John Thompson (id:1299184)

富尔维奥·卢奇萨诺 Fulvio Lucisano (id:1025787)

安德烈·莫里康内 Andrea Morricone (id:1028887)

Alessandro Lucidi Alessandro Lucidi (id:1051931)

沙拉·鲁宾 Shaila Rubin (id:1296266)

Shaila Rubin Shaila Rubin (id:1148494)

卡洛·波吉奥利 Carlo Poggioli (id:1294643)

Giancarlo Del Brocco Giancarlo Del Brocco (id:1282163)

Hristo Dimitrov Hristo Dimitrov (id:1179488)

Victor Bojinov Victor Bojinov (id:1063191)

Giuseppe Squillaci Giuseppe Squillaci (id:1312602)

◎简 介

耶稣被钉死在十字架上三年后,有传言说他将死而复生,并领导群众推翻罗马统治者。为了安稳民心,罗马政府派出一位名叫塔罗斯的官员去寻找耶稣的遗体以反驳传言。结果塔罗斯在调查中频频受阻,不仅有人故意不想让他知道真相,他自己也陷入了关于信仰的矛盾之中……

  1. ##### MediaInfo ######

  2. General

  3. Complete name : The Final Inquiry 2006 1080p WEB-DL H264 AAC-NewWEB.mp4

  4. Format : MPEG-4

  5. Format profile : Base Media

  6. Codec ID : isom (isom/iso2/avc1/mp41)

  7. File size : 3.13 GiB

  8. Duration : 1 h 52 min

  9. Overall bit rate : 3 993 kb/s

  10. Movie name : 凯撒密令

  11. Writing application : Lavf58.32.104

  12. Cover : Yes


  13. Video

  14. ID : 1

  15. Format : AVC

  16. Format/Info : Advanced Video Codec

  17. Format profile : [email protected]

  18. Format settings : CABAC / 4 Ref Frames

  19. Format settings, CABAC : Yes

  20. Format settings, Reference frames : 4 frames

  21. Codec ID : avc1

  22. Codec ID/Info : Advanced Video Coding

  23. Duration : 1 h 52 min

  24. Bit rate : 3 795 kb/s

  25. Width : 1 920 pixels

  26. Height : 1 040 pixels

  27. Display aspect ratio : 1.85:1

  28. Frame rate mode : Variable

  29. Frame rate : 23.976 FPS

  30. Minimum frame rate : 23.256 FPS

  31. Maximum frame rate : 24.390 FPS

  32. Color space : YUV

  33. Chroma subsampling : 4:2:0

  34. Bit depth : 8 bits

  35. Scan type : Progressive

  36. Bits/(Pixel*Frame) : 0.079

  37. Stream size : 2.98 GiB (95%)

  38. Writing library : BiliBili H264 Encoder v1.0

  39. Color range : Limited

  40. Color primaries : BT.709

  41. Transfer characteristics : BT.709

  42. Matrix coefficients : BT.709

  43. Codec configuration box : avcC


  44. Audio

  45. ID : 2

  46. Format : AAC LC

  47. Format/Info : Advanced Audio Codec Low Complexity

  48. Codec ID : mp4a-40-2

  49. Duration : 1 h 52 min

  50. Bit rate mode : Constant

  51. Bit rate : 192 kb/s

  52. Channel(s) : 2 channels

  53. Channel layout : L R

  54. Sampling rate : 48.0 kHz

  55. Frame rate : 46.875 FPS (1024 SPF)

  56. Compression mode : Lossy

  57. Stream size : 154 MiB (5%)

  58. Default : Yes

  59. Alternate group : 1




文件下载


除非特别注明,本文『凯撒密令[中文字幕].The.Final.Inquiry.2006.1080p.WEB-DL.H264.AAC-NewWEB 3.13GB』来源于互联网机器人自动抓取,非本站原创。 浮游电影网不对本文拥有版权,如有侵犯,请联系邮箱:fuyouu#yandex.com[#换成@]投诉。我们会在15个工作日内删除。 但烦请转载时请标明出处:“本文转载于『浮游电影网』,原文地址:https://www.fuyouu.com/21157.html

评论吧骚年!

发表你的见解   

昵称*

E-mail*(建议输入,以便收到博主回复的提示邮件)

验证码*

您可以使用eMule或eMule Mod(Windows)、aMule(Win、Linux、Mac)等软件下载eD2k链接。。
eMule收藏集(.emulecollection)文件是您选中的所有链接的列表文件。eMule可以直接下载它们。
按住SHIFT键选择可以选中多个选择框。
可用文件名和大小选择器来选择文件。
文件名选择器帮您根据文件名称或后缀来选择文件。不分大小写。
符号使用:
和:空格( )、+
不包含:-
或:|
转义:一对英文引号("");
匹配开头:^
匹配结尾:$
例如:
选中所有名称中包含有“eMule”或“0.49c”字眼,但不包含有“exe”字眼的:emule|0.49c -exe
选中所有名称的开头是“eMule”,结尾是“0.49c”的:^emule 0.49c$
选中所有名称中带有“eMule 0.49c”的(必须是“eMule 0.49c”,中间没有别的字符,不能是“eMule fake 0.49c”),需要转义:"emule 0.49c"
大小选择器帮您根据文件大小选择文件。