当前位置: 首页 >> 海外电影 >> 幸运[中文字幕].Fortunata.2017.1080p.WEB-DL.H264.AAC-NewWEB 2.79GB >> 正文

幸运[中文字幕].Fortunata.2017.1080p.WEB-DL.H264.AAC-NewWEB 2.79GB

2022年04月06日 21:53:46     电影发布:来源于网络     电影分类:海外电影     评论(0)    

幸运[中文字幕].Fortunata.2017.1080p.WEB DL.H264.AAC NewWEB 2.79GB 剧情 海外电影  第1张

◎译 名 幸运 / Lucky / 幸运是她(港)

◎片 名 Fortunata

◎年 代 2017

◎产 地 意大利

◎类 别 剧情

◎语 言 意大利语

◎上映日期 2017-05-21(戛纳电影节)

◎IMDb链接 https://www.imdb.com/title/tt6306400/

◎豆瓣评分 6.3/10 (280人评价)

◎豆瓣链接 https://movie.douban.com/subject/27018301/

◎片 长 103分钟

◎导 演 赛尔乔·卡斯特利托 Sergio Castellitto (id:1022935)

◎编 剧 玛格丽特·马赞蒂尼 Margaret Mazzantini (id:1041828)

◎演 员 杰丝敏·特丽卡 Jasmine Trinca (id:1045359)

汉娜·许古拉 Hanna Schygulla (id:1016736)

斯特凡诺·阿科尔西 Stefano Accorsi (id:1032382)

亚历桑德罗·博尔吉 Alessandro Borghi (id:1382638)

阿瓦·勒依 Awa Ly (id:1241407)

◎简 介

幸運是她的名字。儘管面對破裂婚姻,獨力帶着八歲女兒,她仍深信幸運在自己手裡,夢想有天能高飛,盼望彩票中頭獎,開一家屬於自己的幸運髮廊。這位「羅馬媽媽」有傂慕Y,父親早死,她一直沒走出陰影。失意時遇上愛情,與愛女關係卻日趨惡化。羅馬水道橋前,大媽廣場舞是時代標記,中國移民放貴利。演而優則導的卡斯迪里圖,在執導《戀火浮生》後,再度與編劇妻子合作,回到家鄉羅馬取景,請來漢娜舒古拉重量級客串,女主角潔絲敏婷卡更於康城影展「某種觀點」單元獲封影后。

◎获奖情况 (共2项)

第70届戛纳电影节 (2017)

一种关注单元 一种关注大奖(提名)

└──赛尔乔·卡斯特利托 (id:1022935)

一种关注单元 最佳女演员

└──杰丝敏·特丽卡 (id:1045359)

  1. ##### MediaInfo ######

  2. General

  3. Complete name : Fortunata 2017 1080p WEB-DL H264 AAC-NewWEB.mp4

  4. Format : MPEG-4

  5. Format profile : Base Media

  6. Codec ID : isom (isom/iso2/avc1/mp41)

  7. File size : 2.79 GiB

  8. Duration : 1 h 39 min

  9. Overall bit rate : 3 997 kb/s

  10. Movie name : 幸运

  11. Writing application : Lavf58.32.104

  12. Cover : Yes


  13. Video

  14. ID : 1

  15. Format : AVC

  16. Format/Info : Advanced Video Codec

  17. Format profile : [email protected]

  18. Format settings : CABAC / 4 Ref Frames

  19. Format settings, CABAC : Yes

  20. Format settings, Reference frames : 4 frames

  21. Codec ID : avc1

  22. Codec ID/Info : Advanced Video Coding

  23. Duration : 1 h 39 min

  24. Bit rate : 3 798 kb/s

  25. Width : 1 920 pixels

  26. Height : 804 pixels

  27. Display aspect ratio : 2.40:1

  28. Frame rate mode : Variable

  29. Frame rate : 24.000 FPS

  30. Minimum frame rate : 23.810 FPS

  31. Maximum frame rate : 24.390 FPS

  32. Color space : YUV

  33. Chroma subsampling : 4:2:0

  34. Bit depth : 8 bits

  35. Scan type : Progressive

  36. Bits/(Pixel*Frame) : 0.103

  37. Stream size : 2.65 GiB (95%)

  38. Writing library : BiliBili H264 Encoder v1.0

  39. Color range : Limited

  40. Color primaries : BT.709

  41. Transfer characteristics : BT.709

  42. Matrix coefficients : BT.709

  43. Codec configuration box : avcC


  44. Audio

  45. ID : 2

  46. Format : AAC LC

  47. Format/Info : Advanced Audio Codec Low Complexity

  48. Codec ID : mp4a-40-2

  49. Duration : 1 h 39 min

  50. Bit rate mode : Constant

  51. Bit rate : 192 kb/s

  52. Channel(s) : 2 channels

  53. Channel layout : L R

  54. Sampling rate : 48.0 kHz

  55. Frame rate : 46.875 FPS (1024 SPF)

  56. Compression mode : Lossy

  57. Stream size : 137 MiB (5%)

  58. Default : Yes

  59. Alternate group : 1


文件下载


除非特别注明,本文『幸运[中文字幕].Fortunata.2017.1080p.WEB-DL.H264.AAC-NewWEB 2.79GB』来源于互联网机器人自动抓取,非本站原创。 浮游电影网不对本文拥有版权,如有侵犯,请联系邮箱:fuyouu#yandex.com[#换成@]投诉。我们会在15个工作日内删除。 但烦请转载时请标明出处:“本文转载于『浮游电影网』,原文地址:https://www.fuyouu.com/21153.html

评论吧骚年!

发表你的见解   

昵称*

E-mail*(建议输入,以便收到博主回复的提示邮件)

验证码*

您可以使用eMule或eMule Mod(Windows)、aMule(Win、Linux、Mac)等软件下载eD2k链接。。
eMule收藏集(.emulecollection)文件是您选中的所有链接的列表文件。eMule可以直接下载它们。
按住SHIFT键选择可以选中多个选择框。
可用文件名和大小选择器来选择文件。
文件名选择器帮您根据文件名称或后缀来选择文件。不分大小写。
符号使用:
和:空格( )、+
不包含:-
或:|
转义:一对英文引号("");
匹配开头:^
匹配结尾:$
例如:
选中所有名称中包含有“eMule”或“0.49c”字眼,但不包含有“exe”字眼的:emule|0.49c -exe
选中所有名称的开头是“eMule”,结尾是“0.49c”的:^emule 0.49c$
选中所有名称中带有“eMule 0.49c”的(必须是“eMule 0.49c”,中间没有别的字符,不能是“eMule fake 0.49c”),需要转义:"emule 0.49c"
大小选择器帮您根据文件大小选择文件。