当前位置: 首页 >> 海外电影 >> 巴黎野玫瑰[中文字幕].Betty.Blue.1986.Criterion.Collection.BluRay.1080p.FLAC.x264-OPT 18.20GB >> 正文

巴黎野玫瑰[中文字幕].Betty.Blue.1986.Criterion.Collection.BluRay.1080p.FLAC.x264-OPT 18.20GB

2022年04月06日 21:50:57     电影发布:来源于网络     电影分类:海外电影     评论(0)    

image.png

◎标 题 巴黎野玫瑰

◎译 名 37度2 / 早晨三十七点二度C / 忧郁贝蒂 / Betty Blue

◎片 名 37°2 le matin

◎年 代 1986

◎产 地 法国

◎类 别 剧情 / 爱情 / 情色

◎语 言 法语

◎上映日期 1986年11月7日

◎IMDb评分 7.4/10 (20745人评价)

◎IMDb链接 https://www.imdb.com/title/tt0090563/

◎豆瓣评分 8.1/10 (39559人评价)

◎豆瓣链接 https://movie.douban.com/subject/1303053/

◎片 长 分钟

◎导 演 让-雅克·贝奈克斯

◎编 剧 让-雅克·贝奈克斯

菲利普·迪昂

◎演 员 让·雨果·安格拉德

碧翠斯·黛尔

热拉尔·达尔蒙

Consuelo De Haviland

克莱门汀·塞拉里耶

Jacques Mathou

◎简 介

贝蒂(碧翠斯·黛尔 Béatrice Dall饰)是一个性格自由而极端的女子。她受不得约束,忍受不得心爱的人被别人欺骗和侮辱,才华受不到重视。当桑格(让·雨果·安格拉德 Jean-Hugues Anglade饰)收容下她以后,她的这些个性如此锋利,让人喘不过气。她跟桑格疯狂的做爱,她近乎疯狂的追求完美主义的爱情。当她发现桑格是个天才的作家时,毅然把他的小说手稿一字一字不分昼夜的打成铅字,交给出版商。然而,没有人愿意接受,绝望也一点点在贝蒂身体里蔓延。她无所顾忌的伤害那些伤害自己和桑格的人们,偏执而不能容忍眼中的污垢。没能怀孕的消息更是给了她当头一棒。于是,贝蒂不可避免的疯了,甚至挖掉自己的眼球……桑格的眼中,贝蒂成了一个生不如死的女子。

  1. ##### MediaInfo ######

  2. General

  3. Unique ID : 171300194340869770214596220597338925629 (0x80DF37A5F4D55760BB59C94320006A3D)

  4. Complete name : Betty.Blue.1986.Criterion.Collection.BluRay.1080p.FLAC.x264-OPT.mkv

  5. Format : Matroska

  6. Format version : Version 2

  7. File size : 18.2 GiB

  8. Duration : 3 h 5 min

  9. Overall bit rate mode : Variable

  10. Overall bit rate : 14.1 Mb/s

  11. Encoded date : UTC 2020-05-19 04:04:48

  12. Writing application : mkvmerge v8.5.2 ('Crosses') 32bit

  13. Writing library : libebml v1.3.3 + libmatroska v1.4.4


  14. Video

  15. ID : 1

  16. Format : AVC

  17. Format/Info : Advanced Video Codec

  18. Format profile : [email protected]

  19. Format settings : CABAC / 4 Ref Frames

  20. Format settings, CABAC : Yes

  21. Format settings, Reference frames : 4 frames

  22. Codec ID : V_MPEG4/ISO/AVC

  23. Duration : 3 h 5 min

  24. Bit rate : 13.0 Mb/s

  25. Width : 1 800 pixels

  26. Height : 1 080 pixels

  27. Display aspect ratio : 5:3

  28. Frame rate mode : Constant

  29. Frame rate : 23.976 (24000/1001/53354) FPS

  30. Color space : YUV

  31. Chroma subsampling : 4:2:0

  32. Bit depth : 8 bits

  33. Scan type : Progressive

  34. Bits/(Pixel*Frame) : 0.278

  35. Stream size : 16.8 GiB (92%)

  36. Writing library : x264 core 142 r2431+42 c69a006 tMod [[email protected]:2:0 X86_64]

  37. Encoding settings : cabac=1 / ref=4 / deblock=1:-3:-3 / analyse=0x3:0x113 / me=umh / subme=10 / psy=1 / fade_compensate=0.00 / psy_rd=1.00:0.05 / mixed_ref=1 / me_range=48 / chroma_me=1 / trellis=2 / 8x8dct=1 / cqm=0 / deadzone=21,11 / fast_pskip=0 / chroma_qp_offset=-2 / threads=48 / lookahead_threads=8 / sliced_threads=0 / nr=0 / decimate=1 / interlaced=0 / NTMzNTQ= / bluray_compat=0 / constrained_intra=0 / fgo=0 / bframes=8 / b_pyramid=2 / b_adapt=2 / b_bias=0 / direct=3 / weightb=1 / open_gop=0 / weightp=2 / keyint=250 / keyint_min=23 / NTMzNTQ=uuDQuD2mJt9fsCf / scenecut=40 / intra_refresh=0 / rc_lookahead=40 / rc=crf / mbtree=0 / crf=20.1000 / qcomp=0.60 / qpmin=0:0:0 / qpmax=69:69:69 / qpstep=4 / vbv_maxrate=40000 / vbv_bufsize=30000 / crf_max=0.0 / nal_hrd=none / filler=0 / NTMzNTQ=LmsMAP37EqsCpk / ip_ratio=1.40 / pb_ratio=1.30 / aq=3:0.80 / aq-sensitivity=10.00 / aq-factor=1.00:1.00:1.00 / aq2=0 / aq3=0

  38. Default : Yes

  39. Forced : No

  40. Color range : Limited

  41. Matrix coefficients : BT.709


  42. Audio #1

  43. ID : 2

  44. Format : FLAC

  45. Format/Info : Free Lossless Audio Codec

  46. Codec ID : A_FLAC

  47. Duration : 3 h 5 min

  48. Bit rate mode : Variable

  49. Bit rate : 640 kb/s

  50. Channel(s) : 1 channel

  51. Channel layout : C

  52. Sampling rate : 48.0 kHz

  53. Frame rate : 11.719 FPS (4096 SPF)

  54. Bit depth : 24 bits

  55. Compression mode : Lossless

  56. Stream size : 847 MiB (5%)

  57. Writing library : libFLAC 1.2.1 (UTC 2007-09-17)

  58. Language : French

  59. Default : Yes

  60. Forced : No


  61. Audio #2

  62. ID : 3

  63. Format : AC-3

  64. Format/Info : Audio Coding 3

  65. Commercial name : Dolby Digital

  66. Codec ID : A_AC3

  67. Duration : 3 h 5 min

  68. Bit rate mode : Constant

  69. Bit rate : 448 kb/s

  70. Channel(s) : 1 channel

  71. Channel layout : C

  72. Sampling rate : 48.0 kHz

  73. Frame rate : 31.250 FPS (1536 SPF)

  74. Compression mode : Lossy

  75. Stream size : 593 MiB (3%)

  76. Language : French

  77. Service kind : Complete Main

  78. Default : No

  79. Forced : No


  80. Text #1

  81. ID : 4

  82. Format : PGS

  83. Muxing mode : zlib

  84. Codec ID : S_HDMV/PGS

  85. Codec ID/Info : Picture based subtitle format used on BDs/HD-DVDs

  86. Duration : 3 h 0 min

  87. Bit rate : 5 768 b/s

  88. Count of elements : 3592

  89. Stream size : 7.45 MiB (0%)

  90. Language : English

  91. Default : Yes

  92. Forced : No


  93. Text #2

  94. ID : 5

  95. Format : PGS

  96. Muxing mode : zlib

  97. Codec ID : S_HDMV/PGS

  98. Codec ID/Info : Picture based subtitle format used on BDs/HD-DVDs

  99. Duration : 3 h 0 min

  100. Bit rate : 9 312 b/s

  101. Count of elements : 2478

  102. Stream size : 12.0 MiB (0%)

  103. Language : Chinese

  104. Default : No

  105. Forced : No


  106. Text #3

  107. ID : 6

  108. Format : PGS

  109. Muxing mode : zlib

  110. Codec ID : S_HDMV/PGS

  111. Codec ID/Info : Picture based subtitle format used on BDs/HD-DVDs

  112. Duration : 3 h 0 min

  113. Bit rate : 9 470 b/s

  114. Count of elements : 2478

  115. Stream size : 12.2 MiB (0%)

  116. Language : Chinese

  117. Default : No

  118. Forced : No


  119. Menu

  120. 00:00:00.000 : en:00:00:00.000

  121. 00:08:32.178 : en:00:08:32.178

  122. 00:17:17.870 : en:00:17:17.870

  123. 00:24:12.242 : en:00:24:12.242

  124. 00:31:27.803 : en:00:31:27.803

  125. 00:37:06.266 : en:00:37:06.266

  126. 00:46:13.354 : en:00:46:13.354

  127. 00:52:05.372 : en:00:52:05.372

  128. 01:00:31.670 : en:01:00:31.670

  129. 01:08:52.754 : en:01:08:52.754

  130. 01:14:44.438 : en:01:14:44.438

  131. 01:25:09.146 : en:01:25:09.146

  132. 01:30:27.881 : en:01:30:27.881

  133. 01:38:47.171 : en:01:38:47.171

  134. 01:46:10.573 : en:01:46:10.573

  135. 01:56:40.660 : en:01:56:40.660

  136. 02:03:30.403 : en:02:03:30.403

  137. 02:10:43.377 : en:02:10:43.377

  138. 02:19:22.104 : en:02:19:22.104

  139. 02:26:29.197 : en:02:26:29.197

  140. 02:34:49.989 : en:02:34:49.989

  141. 02:40:13.646 : en:02:40:13.646

  142. 02:47:39.424 : en:02:47:39.424

  143. 02:53:03.415 : en:02:53:03.415

  144. 02:59:16.996 : en:02:59:16.996




复制代码



文件下载


除非特别注明,本文『巴黎野玫瑰[中文字幕].Betty.Blue.1986.Criterion.Collection.BluRay.1080p.FLAC.x264-OPT 18.20GB』来源于互联网机器人自动抓取,非本站原创。 浮游电影网不对本文拥有版权,如有侵犯,请联系邮箱:fuyouu#yandex.com[#换成@]投诉。我们会在15个工作日内删除。 但烦请转载时请标明出处:“本文转载于『浮游电影网』,原文地址:https://www.fuyouu.com/21151.html

评论吧骚年!

发表你的见解   

昵称*

E-mail*(建议输入,以便收到博主回复的提示邮件)

验证码*

您可以使用eMule或eMule Mod(Windows)、aMule(Win、Linux、Mac)等软件下载eD2k链接。。
eMule收藏集(.emulecollection)文件是您选中的所有链接的列表文件。eMule可以直接下载它们。
按住SHIFT键选择可以选中多个选择框。
可用文件名和大小选择器来选择文件。
文件名选择器帮您根据文件名称或后缀来选择文件。不分大小写。
符号使用:
和:空格( )、+
不包含:-
或:|
转义:一对英文引号("");
匹配开头:^
匹配结尾:$
例如:
选中所有名称中包含有“eMule”或“0.49c”字眼,但不包含有“exe”字眼的:emule|0.49c -exe
选中所有名称的开头是“eMule”,结尾是“0.49c”的:^emule 0.49c$
选中所有名称中带有“eMule 0.49c”的(必须是“eMule 0.49c”,中间没有别的字符,不能是“eMule fake 0.49c”),需要转义:"emule 0.49c"
大小选择器帮您根据文件大小选择文件。